Разлом Сан-Андреас / San Andreas (Брэд Пейтон) [2015, США, боевик, триллер, драма,аппокалипсис, BlueRay][Sub Eng/Rus][Sound Ru/Eng] 720p

Ответить на тему
 

Страх ®

Стаж: 4 года

Сообщений: 1131

Симпатии: 448

Разлом Сан-Андреас / San Andreas- --- -Страна: США
Жанр: боевик, триллер, драма,апокалипсис
Год выпуска: 2015
Продолжительность: 01:54:49-Перевод: Профессиональный (дублированный)
Звук: Лицензия
Cубтитры: русские/английские
Оригинальная аудио дорожка: английский-Режиссер: Брэд Пейтон-В ролях: Дуэйн Джонсон, Александра Даддарио, Карла Гуджино, Колтон Хэйнс, Йоан Гриффит, Пол Джаматти, Арчи Панджаби, Уилл Юн Ли, Кайли Миноуг, Хьюго Джонстон-Барт-Описание: Рэй — пилот спасательного вертолета, который всю свою жизнь помогал другим людям. За все время работы он насмотрелся на множество жутких вещей и не раз оказывался в очень сложных ситуациях. Несмотря на все преграды он спешил на помощь, даже не предполагая, что самое страшное ждет его впереди. На Калифорнию обрушивается мощное землетрясение, в результате которого гибнут сотни людей и образовывается огромная трещина в земле. Во всеобщем хаосе Рэю предстоит отыскать свою дочь, но сделать это будет очень непросто. В надежде, что его ребенок все еще жив, он отправляется в смертельно опасное путешествие через весь штат…-- --Качество видео: Blueray
Формат видео: MKV-Видео: Video: MPEG4 (H264) 1280x532 23.976fps | 4 787 Kbps
Аудио/Rus: Dolby AC3 48000Hz 6ch 448kbps
Аудио/Eng: DTS 48000Hz 6ch 1536kbps
Доп. информация о субтитрах: PGS

MediaInfo

General
Unique ID : 172585828600938581408122534703945114665 (0x81D6D24FA7C03813B1CEBCBFAFCE6429)
Complete name : D:\Tracker\Movie Files\San.Andreas.2015.D.BluRay.720p.Rus.Eng.mkv
Format : Matroska
Format version : Version 2
File size : 5.42 GiB
Duration : 1h 54mn
Overall bit rate : 6 774 Kbps
Encoded date : UTC 2015-09-24 19:23:47
Writing application : mkvmerge v8.3.0 ('Over the Horizon') 64bit
Writing library : libebml v1.3.1 + libmatroska v1.4.2
DURATION : 01:52:51.807000000
NUMBER_OF_FRAMES : 2978
NUMBER_OF_BYTES : 24850926
_STATISTICS_WRITING_APP : mkvmerge v8.3.0 ('Over the Horizon') 64bit
_STATISTICS_WRITING_DATE_UTC : 2015-09-24 19:23:47
_STATISTICS_TAGS : BPS DURATION NUMBER_OF_FRAMES NUMBER_OF_BYTES
Video
ID : 1
Format : AVC
Format/Info : Advanced Video Codec
Format profile : [email protected]
Format settings, CABAC : Yes
Format settings, ReFrames : 2 frames
Codec ID : V_MPEG4/ISO/AVC
Duration : 1h 54mn
Bit rate : 4 787 Kbps
Width : 1 280 pixels
Height : 532 pixels
Display aspect ratio : 2.40:1
Frame rate mode : Constant
Frame rate : 23.976 fps
Color space : YUV
Chroma subsampling : 4:2:0
Bit depth : 8 bits
Scan type : Progressive
Bits/(Pixel*Frame) : 0.293
Stream size : 3.74 GiB (69%)
Writing library : x264 core 148 r2579 73ae2d1
Encoding settings : cabac=1 / ref=9 / deblock=1:0:0 / analyse=0x3:0x3 / me=umh / subme=1 / psy=1 / psy_rd=1.00:0.00 / mixed_ref=0 / me_range=32 / chroma_me=1 / trellis=0 / 8x8dct=1 / cqm=0 / deadzone=21,11 / fast_pskip=1 / chroma_qp_offset=-2 / threads=36 / lookahead_threads=2 / sliced_threads=0 / nr=0 / decimate=1 / interlaced=0 / bluray_compat=0 / constrained_intra=0 / bframes=6 / b_pyramid=0 / b_adapt=1 / b_bias=0 / direct=1 / weightb=1 / open_gop=0 / weightp=1 / keyint=240 / keyint_min=23 / scenecut=40 / intra_refresh=0 / rc_lookahead=40 / rc=2pass / mbtree=0 / bitrate=4787 / ratetol=1.0 / qcomp=0.60 / qpmin=0 / qpmax=69 / qpstep=4 / cplxblur=20.0 / qblur=0.5 / vbv_maxrate=50000 / vbv_bufsize=62500 / nal_hrd=none / filler=0 / ip_ratio=1.40 / pb_ratio=1.30 / aq=1:1.00
Default : Yes
Forced : No
Audio #1
ID : 2
Format : AC-3
Format/Info : Audio Coding 3
Mode extension : CM (complete main)
Format settings, Endianness : Big
Codec ID : A_AC3
Duration : 1h 54mn
Bit rate mode : Constant
Bit rate : 448 Kbps
Channel(s) : 6 channels
Channel positions : Front: L C R, Side: L R, LFE
Sampling rate : 48.0 KHz
Compression mode : Lossy
Stream size : 367 MiB (7%)
Language : Russian
Default : Yes
Forced : No
Audio #2
ID : 3
Format : DTS
Format/Info : Digital Theater Systems
Mode : 16
Format settings, Endianness : Big
Codec ID : A_DTS
Duration : 1h 54mn
Bit rate mode : Constant
Bit rate : 1 509 Kbps
Channel(s) : 6 channels
Channel positions : Front: L C R, Side: L R, LFE
Sampling rate : 48.0 KHz
Bit depth : 24 bits
Compression mode : Lossy
Stream size : 1.21 GiB (22%)
Language : English
Default : No
Forced : No
Text
ID : 4
Format : PGS
Codec ID : S_HDMV/PGS
Codec ID/Info : Picture based subtitle format used on BDs/HD-DVDs
Language : English
Default : No
Forced : No
Menu
00:00:00.000 : en:Chapter 1
00:09:29.944 : en:Chapter 2
00:18:47.209 : en:Chapter 3
00:30:10.100 : en:Chapter 4
00:40:08.823 : en:Chapter 5
00:50:18.098 : en:Chapter 6
00:59:44.498 : en:Chapter 7
01:11:27.366 : en:Chapter 8
01:19:43.612 : en:Chapter 9
01:30:40.810 : en:Chapter 10
01:39:56.490 : en:Chapter 11
01:47:10.924 : en:Chapter 12

Скриншоты





Создавать темы 25-Сен-2015 21:12

[Профиль]  [ЛС] 

qwq777qwq

Стаж: 6 лет 9 месяцев

Сообщений: 6

Симпатии: 1

Не качает, т.е. качает но очень медленно или не качает Почему?
Начинал качать tps 78% , теперь evo -это причина?

Создавать темы 16-Дек-2015 21:08

[Профиль]  [ЛС] 
Показать сообщения:    
Ответить на тему

Текущее время: 22-Окт 06:02

Часовой пояс: UTC + 5



Вы не можете начинать темы
Вы не можете отвечать на сообщения
Вы не можете редактировать свои сообщения
Вы не можете удалять свои сообщения
Вы не можете голосовать в опросах
Вы не можете прикреплять файлы к сообщениям
Вы не можете скачивать файлы