Антураж / Entourage (Даг Эллин) [2015, США, Комедия, HDRip] [лицензия]

Ответить на тему
 

Каротажник ®

Стаж: 3 года 11 месяцев

Сообщений: 195

Симпатии: 211

Антураж / Entourage-«The ride ain't over»- Страна: США
Жанр: Комедия--Год выпуска: 2015
Продолжительность: 01:44:27--Перевод: Дублированное [лицензия]
Режиссер: Даг Эллин
В ролях: Кевин Коннолли, Адриан Гренье, Кевин Диллон, Джерри Феррара, Джереми Пивен, Эммануэль Шрики, Перри Ривз, Рекс Ли, Деби Мейзар, Рис Койро, Констанс Зиммер, Хейли Джоэл Осмент, Ронда Раузи, Скотт Мескади, Алан Дэйл, Эмили Ратаковски, Билли Боб Торнтон, Нина Агдал, Лукас Эллин, Пирс Морган
Описание: Звезда кино Винс Чейз и его друзья бросают вызов капризному и зачастую жестокому миру Голливуда.-- 
--Премьера (мир) - 27 мая 2015, ...
Премьера (РФ) - 30 июля 2015, «Каро-Премьер»--Релиз на Blu-Ray - 15 октября 2015, «CP Дистрибуция», ...
Релиз на DVD - 15 октября 2015, «CP Дистрибуция», ...--Возраст - Зрителям, достигшим 16 лет
Рейтинг MPAA - Лицам до 17 лет обязательно присутствие взрослого--Качество видео: HDRip
Формат видео: AVI--Видео: Xvid 720x304 23.976fps 1487kbps
Аудио: AC3 48000Hz 6ch 384kbps

MediaInfo

Format : AVI
Format/Info : Audio Video Interleave
File size : 1.37 GiB
Duration : 1h 44mn
Overall bit rate : 1 881 Kbps
Writing application : VirtualDubMod 1.5.10.2 (build 2540/release)
Writing library : VirtualDubMod build 2540/release
Video
ID : 0
Format : MPEG-4 Visual
Format profile : Advanced [email protected]
Format settings, BVOP : 2
Format settings, QPel : No
Format settings, GMC : No warppoints
Format settings, Matrix : Default (MPEG)
Codec ID : XVID
Codec ID/Hint : XviD
Duration : 1h 44mn
Bit rate : 1 488 Kbps
Width : 720 pixels
Height : 304 pixels
Display aspect ratio : 2.35:1
Frame rate : 23.976 fps
Color space : YUV
Chroma subsampling : 4:2:0
Bit depth : 8 bits
Scan type : Progressive
Compression mode : Lossy
Bits/(Pixel*Frame) : 0.284
Stream size : 1.09 GiB (79%)
Writing library : XviD 1.2.1 (UTC 2008-12-04)
Audio
ID : 1
Format : AC-3
Format/Info : Audio Coding 3
Mode extension : CM (complete main)
Format settings, Endianness : Big
Codec ID : 2000
Duration : 1h 44mn
Bit rate mode : Constant
Bit rate : 384 Kbps
Channel(s) : 6 channels
Channel positions : Front: L C R, Side: L R, LFE
Sampling rate : 48.0 KHz
Bit depth : 16 bits
Compression mode : Lossy
Stream size : 287 MiB (20%)
Alignment : Split accross interleaves
Interleave, duration : 42 ms (1.00 video frame)
Interleave, preload duration : 500 ms

Скриншоты


Создавать темы 26-Сен-2015 04:12

[Профиль]  [ЛС] 

Kakcam

Стаж: 6 лет 10 месяцев

Сообщений: 137

Симпатии: 7

блин 12 сидов, и я никак немогу подключиться к кним. :(

Создавать темы 05-Апр-2016 13:18

[Профиль]  [ЛС] 
Показать сообщения:    
Ответить на тему

Текущее время: 25-Сен 03:57

Часовой пояс: UTC + 5



Вы не можете начинать темы
Вы не можете отвечать на сообщения
Вы не можете редактировать свои сообщения
Вы не можете удалять свои сообщения
Вы не можете голосовать в опросах
Вы не можете прикреплять файлы к сообщениям
Вы не можете скачивать файлы