Затаившись / Hidden (Мэтт Даффер / Matt Duffe / Росс Даффер / Ross Duffer) [2015, США, ужасы, триллер, HDRip] (DVO : den904 & DeadSno)

Ответить на тему
 

UZM ®

Стаж: 5 лет 5 месяцев

Сообщений: 169

Симпатии: 189

Затаившись / Hidden
Страна: США
Жанр: ужасы, триллер
Год выпуска: 2015
Продолжительность: 01:22:48
Перевод: Любительский (двухголосый закадровый) Доп. инфо о переводе den904 & DeadSno
Cубтитры: нет
Режиссер: Мэтт Даффер / Matt Duffe / Росс Даффер / Ross Duffer
В ролях: Александр Скарсгард, Андреа Райзборо, Эмили Элин Линд, Хезер Дорксен, Уильям Энскау
Описание: Рэй, Клэр и их семилетняя дочь Зои — обычная американская семья, живущая в Кингсвилле, Северная Каролина, — вот только живут они в бомбоубежище с тех самых пор, как наступил конец света, который изменил все.
За 301 день они превратили свою бетонную темницу в дом, держась за воспоминания о прошлом и надеясь когда-нибудь вернуться к нормальной жизни. 301 день им удавалось избегать того, что обитает на поверхности, — тяжелое дыхание, грохочущие шаги, раздающиеся в ночи, внушают страх находящимся в хрупком убежище.
Все это время семье удавалось оставаться незамеченной. До сих пор. Сейчас их безопасность под угрозой… и нечто идет за ними.
Качество видео: HDRip
Формат видео: AVI
Видео: Xvid 720x304 23.976fps 1016kbps
Аудио: AC3 48,0Hz stereo 192kbps

MediaInfo

General
Complete name : I:\Кино\Hidden.HDRip.700MB.2015.avi
Format : AVI
Format/Info : Audio Video Interleave
File size : 721 MiB
Duration : 1h 22mn
Overall bit rate : 1 218 Kbps
Writing application : VirtualDubMod 1.5.10.2 (build 2540/release)
Writing library : VirtualDub build 35390/release
Video
ID : 0
Format : MPEG-4 Visual
Format profile : Advanced [email protected]
Format settings, BVOP : 1
Format settings, QPel : No
Format settings, GMC : No warppoints
Format settings, Matrix : Default (MPEG)
Codec ID : XVID
Codec ID/Hint : XviD
Duration : 1h 22mn
Bit rate : 1 016 Kbps
Width : 720 pixels
Height : 304 pixels
Display aspect ratio : 2.35:1
Frame rate : 23.976 fps
Color space : YUV
Chroma subsampling : 4:2:0
Bit depth : 8 bits
Scan type : Progressive
Compression mode : Lossy
Bits/(Pixel*Frame) : 0.194
Stream size : 602 MiB (83%)
Writing library : XviD 1.2.1 (UTC 2008-12-04)
Audio
ID : 1
Format : AC-3
Format/Info : Audio Coding 3
Mode extension : CM (complete main)
Format settings, Endianness : Big
Codec ID : 2000
Duration : 1h 22mn
Bit rate mode : Constant
Bit rate : 192 Kbps
Channel(s) : 2 channels
Channel positions : Front: L R
Sampling rate : 48.0 KHz
Compression mode : Lossy
Stream size : 114 MiB (16%)
Alignment : Split accross interleaves
Interleave, duration : 42 ms (1.00 video frame)
Interleave, preload duration : 500 ms

Скриншот c названием фильма

Скриншоты

,
,


Последний раз редактировалось: UZM (2015-09-26 08:06), всего редактировалось 1 раз

Создавать темы 26-Сен-2015 07:47

[Профиль]  [ЛС] 

SkoroXod

Стаж: 2 года 2 месяца

Сообщений: 99

Симпатии: 78

Пожалуй, фильм на любителя. По-моему мнению, очень скучный и затянутый сюжет. Действие развивается как-то вяло и с неохотой. Фильм больше похож на драму, чем на триллер. Да и концовка не очень-то понятна. В общем, меня фильм не впечатлил.
4/10

Создавать темы 22-Окт-2015 22:17

[Профиль]  [ЛС] 

ruhal

Стаж: 2 года 7 месяцев

Сообщений: 1181

Симпатии: 1836

955944
Пожалуй, фильм на любителя. По-моему мнению, очень скучный и затянутый сюжет. Действие развивается как-то вяло и с неохотой. Фильм больше похож на драму, чем на триллер. Да и концовка не очень-то понятна. В общем, меня фильм не впечатлил.
4/10
дааа терпением ты отличаешься...я минут пятнадцать посмотрел и вырубил нафиг.
Не в обиду автору релиза! Лайк за старания конечно

Создавать темы 23-Окт-2015 09:06

[Профиль]  [ЛС] 
Показать сообщения:    
Ответить на тему

Текущее время: 22-Ноя 16:13

Часовой пояс: UTC + 5



Вы не можете начинать темы
Вы не можете отвечать на сообщения
Вы не можете редактировать свои сообщения
Вы не можете удалять свои сообщения
Вы не можете голосовать в опросах
Вы не можете прикреплять файлы к сообщениям
Вы не можете скачивать файлы