Эшби / Ashby (Тони МакНамара) [2015, США, Драма,Комедия,Мелодрама]

Ответить на тему
 

Hurracan ®

Стаж: 2 года 2 месяца

Сообщений: 79

Симпатии: 80

Эшби / Ashby
Страна: США
Жанр: Драма,Комедия,Мелодрама
Год выпуска: 2015
Продолжительность: 01:40:00
Перевод: Профессиональный (дублированный)
Режиссер: Тони МакНамара
В ролях: Джон Инос III, Захари Найтон, Кевин Данн, Майкл Лернер, Микки Рурк, Сара Силверман, Эмма Робертс, Нат Вулф, Стив Култер, Том Ноуики
Описание:
Поступив в университет, Эд начинает дружить со своим соседом Эшби — бывшим киллером ЦРУ, которому осталось жить всего несколько месяцев…
Качество видео: WEB-DLRip
Формат видео: AVI
Видео: XviD, 1829 kb/s, 720x304
Аудио: AC3, 192 kb/s (2 ch)

MediaInfo

General
Complete name : C:\Users\Hurracan\Downloads\EWbY.2015.D.WEB-DLRip.1.46Gb.avi
Format : AVI
Format/Info : Audio Video Interleave
File size : 1.46 GiB
Duration : 1h 42mn
Overall bit rate : 2 030 Kbps
Writing application : VirtualDubMod 1.5.10.2 (build 2540/release)
Writing library : VirtualDubMod build 2540/release
Video
ID : 0
Format : MPEG-4 Visual
Format profile : Advanced Si[email protected]
Format settings, BVOP : 2
Format settings, QPel : No
Format settings, GMC : No warppoints
Format settings, Matrix : Custom
Codec ID : XVID
Codec ID/Hint : XviD
Duration : 1h 42mn
Bit rate : 1 829 Kbps
Width : 720 pixels
Height : 304 pixels
Display aspect ratio : 2.35:1
Frame rate : 23.976 fps
Color space : YUV
Chroma subsampling : 4:2:0
Bit depth : 8 bits
Scan type : Progressive
Compression mode : Lossy
Bits/(Pixel*Frame) : 0.348
Stream size : 1.32 GiB (90%)
Writing library : XviD 1.2.1 (UTC 2008-12-04)
Audio
ID : 1
Format : AC-3
Format/Info : Audio Coding 3
Mode extension : CM (complete main)
Format settings, Endianness : Big
Codec ID : 2000
Duration : 1h 42mn
Bit rate mode : Constant
Bit rate : 192 Kbps
Channel(s) : 2 channels
Channel positions : Front: L R
Sampling rate : 48.0 KHz
Compression mode : Lossy
Stream size : 141 MiB (9%)
Alignment : Split accross interleaves
Interleave, duration : 42 ms (1.00 video frame)
Interleave, preload duration : 500 ms

Скриншоты





Последний раз редактировалось: Hurracan (2015-09-27 17:07), всего редактировалось 2 раз(а)

Создавать темы 27-Сен-2015 11:34

[Профиль]  [ЛС] 

Топик был перенесен из форума неоформлено/недооформлено в форум Фильмы за 2015
Hurracan

Создавать темы 27-Сен-2015 13:27

 
Показать сообщения:    
Ответить на тему

Текущее время: 11-Дек 18:23

Часовой пояс: UTC + 5



Вы не можете начинать темы
Вы не можете отвечать на сообщения
Вы не можете редактировать свои сообщения
Вы не можете удалять свои сообщения
Вы не можете голосовать в опросах
Вы не можете прикреплять файлы к сообщениям
Вы не можете скачивать файлы