Видеоуроки по Borland C++ Builder - Обучающее видео [2006 г., Видеокурс, DVDRip]

Ответить на тему
 

mansurjon ®

Стаж: 7 лет 4 месяца

Сообщений: 103

Симпатии: 3

Видеоуроки по Borland C++ Builder - Обучающее видео Год выпуска: 2006
Жанр: Видеокурс
Производство: Microsoft PCMl
Язык: Русский

Видео уроки по C++ дают полное описание языка Borland C++ и подробно показывают принципы и методы объектно-ориентированного программирования на языке C++. Видео уроки по C++ подробно описывают структуру библиотеки классов VCL, так же в них излагается концепция визуального программирования и ее реализация в Borland C++ Builder... Видео уроки C++ содержат многочисленные примеры, облегчающие усвоение материала, в том числе, программы текстового и графического редакторов, анимации и мультимедиа. Эти видео уроки по C++ предназначены не только для начинающих, но и для опытных программистов, которые хотели бы быстро освоить язык C++ и работу в системе Borland C++ Builder.

Качество: DVDRip
Формат: AVI
Видео: 640x480 (1.33:1), 10 fps, Microsoft Run Length Encoding ~265 kbps avg, 0.09 bit/pixel
Аудио: 22.050 kHz, Microsoft PCM, 1 ch, ~352.80 kbps avg

MediaInfo

General
Complete name : Borland C++ Builder
Format : AVI
Format/Info : Audio Video Interleave
File size : 8.67 MiB
Duration : 1mn 57s
Overall bit rate : 620 Kbps
Video
Duration : 1mn 57s
Bit rate : 266 Kbps
Width : 640 pixels
Height : 480 pixels
Display aspect ratio : 4:3
Frame rate : 10.000 fps
Bits/(Pixel*Frame) : 0.087
Stream size : 3.71 MiB (43%)
Title : HyperCam Video
Audio
Format : PCM
Format settings, Endianness : Little
Format settings, Sign : Unsigned
Codec ID : 1
Codec ID/Hint : Microsoft
Duration : 1mn 57s
Bit rate mode : Constant
Bit rate : 352.8 Kbps
Channel(s) : 1 channel
Sampling rate : 22.05 KHz
Resolution : 16 bits
Stream size : 4.93 MiB (57%)
Interleave, duration : 2925 ms (29.25 video frames)
Title : Microsoft Waveform: 11.wav

Скриншоты






Последний раз редактировалось: mansurjon (2010-11-12 22:15), всего редактировалось 1 раз

Создавать темы 12-Ноя-2010 13:45

[Профиль]  [ЛС] 

mikelangello

Стаж: 7 лет

Сообщений: 125

Симпатии: 2

Вот то что доктор прописал. :)

Создавать темы 12-Ноя-2010 17:01

[Профиль]  [ЛС] 
Показать сообщения:    
Ответить на тему

Текущее время: 26-Сен 22:27

Часовой пояс: UTC + 5



Вы не можете начинать темы
Вы не можете отвечать на сообщения
Вы не можете редактировать свои сообщения
Вы не можете удалять свои сообщения
Вы не можете голосовать в опросах
Вы не можете прикреплять файлы к сообщениям
Вы не можете скачивать файлы