Идеалист / Idealisten (Кристина Розендаль / Christina Rosendahl) [2015, Дания, триллер, DVDRip] (Adelstein_s) (Sub Rus + Original Dan)

Ответить на тему
 

UZM ®

Стаж: 5 лет 2 месяца

Сообщений: 169

Симпатии: 189

Идеалист / Idealisten
Страна: Дания
Жанр: триллер
Год выпуска: 2015
Продолжительность: 01:48:59
Перевод: Субтитры Доп. инфо о переводе Adelstein_s
Cубтитры: русские
Оригинальная аудиодорожка: датский
Режиссер: Кристина Розендаль / Christina Rosendahl
В ролях: Петер Плаугборг, Сёрен Маллинг, Томас Бо Ларсен, Арли Жовер, Тим Ахерн, Йенс Альбинус, Хенрик Бирк, Клаус Буе, Николай Седерхольм, Ханс Хенрик Клеменсен.
Описание: 21 января 1968 года вблизи авиабазы Туле в Гренландии разбился американский бомбардировщик B-52 с четырьмя термоядерными бомбами на борту. Для проведения работ по очистке и дезактивации заражённой местности были привлечены и датские рабочие. Спустя двадцать лет радиорепортёр Поуль Брик поднимает тему неблагополучного состояния здоровья ликвидаторов последствий аварии. Чем дальше он продвигается в своём журналистском расследовании, тем отчётливее проступают контуры большой политической лжи, тщательно скрываемой как датскими, так и американскими властями.
Качество видео: DVDRip
Формат видео: AVI
Видео: MPEG-4, Xvid 720x368 25fps 1534kbps
Аудио: Dolby AC3 48,0Hz 6ch 384kbps

MediaInfo

General
Complete name : I:\Кино\Idealisten\Idealisten.avi
Format : AVI
Format/Info : Audio Video Interleave
File size : 1.47 GiB
Duration : 1h 48mn
Overall bit rate : 1 928 Kbps
Video
ID : 0
Format : MPEG-4 Visual
Format profile : Advanced [email protected]
Format settings, BVOP : 2
Format settings, QPel : No
Format settings, GMC : No warppoints
Format settings, Matrix : Default (H.263)
Codec ID : XVID
Codec ID/Hint : XviD
Duration : 1h 48mn
Bit rate : 1 534 Kbps
Width : 720 pixels
Height : 368 pixels
Display aspect ratio : 1.957
Frame rate : 25.000 fps
Color space : YUV
Chroma subsampling : 4:2:0
Bit depth : 8 bits
Scan type : Progressive
Compression mode : Lossy
Bits/(Pixel*Frame) : 0.232
Stream size : 1.17 GiB (80%)
Writing library : XviD 64
Audio
ID : 1
Format : AC-3
Format/Info : Audio Coding 3
Mode extension : CM (complete main)
Format settings, Endianness : Big
Codec ID : 2000
Duration : 1h 48mn
Bit rate mode : Constant
Bit rate : 384 Kbps
Channel(s) : 6 channels
Channel positions : Front: L C R, Side: L R, LFE
Sampling rate : 48.0 KHz
Compression mode : Lossy
Stream size : 299 MiB (20%)
Alignment : Aligned on interleaves
Interleave, duration : 40 ms (1.00 video frame)
Interleave, preload duration : 512 ms

Скриншот c названием фильма

Скриншоты

,
,
,

Создавать темы 27-Сен-2015 21:35

[Профиль]  [ЛС] 

hamilion

Стаж: 4 года 11 месяцев

Сообщений: 155

Симпатии: 14

а с дубляжом нет?

Создавать темы 05-Окт-2015 19:46

[Профиль]  [ЛС] 
Показать сообщения:    
Ответить на тему

Текущее время: 20-Авг 11:03

Часовой пояс: UTC + 5



Вы не можете начинать темы
Вы не можете отвечать на сообщения
Вы не можете редактировать свои сообщения
Вы не можете удалять свои сообщения
Вы не можете голосовать в опросах
Вы не можете прикреплять файлы к сообщениям
Вы не можете скачивать файлы