Восставшие мертвецы / Dead Rising: Watchtower (Зак Липовски) [2015, США, боевик, ужасы, триллер, HDRip] [Официальный Звук]

Ответить на тему
 

ruhal ®

Стаж: 2 года 8 месяцев

Сообщений: 1181

Симпатии: 1836

- -Восставшие мертвецы / Dead Rising: Watchtower- Страна: США
Жанр: боевик, ужасы, триллер
Год выпуска: 2015
Продолжительность: 01:58:07-Перевод: Профессиональный (многоголосый закадровый) Официальный Звук
Cубтитры: нет-Режиссер: Зак Липовски-В ролях: Меган Ори, Киган Коннор Трейси, Вирджиния Мэдсен, Дэннис Хэйсберт, Роб Риггл, Джесси Меткалф, Джулия Андерсон, Алекс Паунович, Питер Бенсон, Патрик Сабонгуй, Харли Моренштейн, Кэрри Гензел, С. Эрнст Харт, Сачин Сахель, Гари Джонс, Пол Лейзенби, Мэнни Хасинто, Риз Александр, Тая Клайн, Колтон Квон-Описание: США охватила глобальная эпидемия, в результате которой люди превращаются в кровожадных зомби. Чейз Картер — журналист, который отправляется в опасную зону, вместе с оператором Трейси, чтобы сделать сюжет о надвигающейся катастрофе. Во время съемок они берут интервью у здоровой девушки Кристал, которая рассказывает ужасную правду о том, что в зоне заражения все обречены. В скором порядке власти принимают решение изолировать эту зону, не сделав ничего для эвакуации здоровых людей. Теперь журналисту и группе людей, избежавших заражения, предстоит сделать все возможное, чтобы выбраться из опасной зоны, заполненной кровожадными зомби…-Качество видео: HDRip
Формат видео: AVI
Видео: Xvid 720x304 23.976fps 1569kbps
Аудио: Dolby AC3 48000Hz stereo 192kbps
-

MediaInfo

General
Complete name : E:\Films\V0sstavshie.mert7eci.2015.D.HDRip.1.46GB.avi
Format : AVI
Format/Info : Audio Video Interleave
File size : 1.46 GiB
Duration : 1h 58mn
Overall bit rate : 1 771 Kbps
Writing application : VirtualDubMod 1.5.10.2 (build 2540/release)
Writing library : VirtualDubMod build 2540/release
Video
ID : 0
Format : MPEG-4 Visual
Format profile : Advanced [email protected]
Format settings, BVOP : Yes
Format settings, QPel : No
Format settings, GMC : No warppoints
Format settings, Matrix : Default (MPEG)
Codec ID : XVID
Codec ID/Hint : XviD
Duration : 1h 58mn
Bit rate : 1 570 Kbps
Width : 720 pixels
Height : 304 pixels
Display aspect ratio : 2.35:1
Frame rate : 23.976 fps
Color space : YUV
Chroma subsampling : 4:2:0
Bit depth : 8 bits
Scan type : Progressive
Compression mode : Lossy
Bits/(Pixel*Frame) : 0.299
Stream size : 1.30 GiB (89%)
Writing library : XviD 1.2.1 (UTC 2008-12-04)
Audio
ID : 1
Format : AC-3
Format/Info : Audio Coding 3
Mode extension : CM (complete main)
Format settings, Endianness : Big
Codec ID : 2000
Duration : 1h 58mn
Bit rate mode : Constant
Bit rate : 192 Kbps
Channel(s) : 2 channels
Channel positions : Front: L R
Sampling rate : 48.0 KHz
Bit depth : 16 bits
Compression mode : Lossy
Stream size : 162 MiB (11%)
Alignment : Split accross interleaves
Interleave, duration : 42 ms (1.00 video frame)
Interleave, preload duration : 500 ms

Скриншот c названием фильма

Скриншоты





Создавать темы 28-Сен-2015 09:12

[Профиль]  [ЛС] 

Sin

Стаж: 5 лет 7 месяцев

Сообщений: 13

Симпатии: 2

...прошу простить за грубость, но данный фильм мягко говоря Га*но.
Не видно вменяемое начало; ясно, что ничего не ясно. Где бояться?на что рассчитывался фильм? чтобы поржать?. еле стерпел до 20-той минуты(удалил). Сложилось мнение, что фильм для отсталых.

Создавать темы 09-Окт-2015 09:19

[Профиль]  [ЛС] 

4niko

Стаж: 7 лет 1 месяц

Сообщений: 78

Симпатии: 11

954412...прошу простить за грубость, но данный фильм мягко говоря Га*но.
Не видно вменяемое начало; ясно, что ничего не ясно. Где бояться?на что рассчитывался фильм? чтобы поржать?. еле стерпел до 20-той минуты(удалил). Сложилось мнение, что фильм для отсталых.
Расчитано на фанатов игры и больше не на кого.
Как и все фильмы по играм.

Создавать темы 09-Окт-2015 23:54

[Профиль]  [ЛС] 

ruhal ®

Стаж: 2 года 8 месяцев

Сообщений: 1181

Симпатии: 1836

954499Расчитано на фанатов игры и больше не на кого.
конкретно этого фильма - согласен на 100%
954499Как и все фильмы по играм.
тут не согласен - яркий пример "Принц Персии"

Создавать темы 10-Окт-2015 00:40

[Профиль]  [ЛС] 

SkoroXod

Стаж: 2 года 3 месяца

Сообщений: 99

Симпатии: 78

Фильм на любителя. Особенно понравится тем, кто любит жанр - зомби-апокалипсиса, да и просто смотреть на отстрел, резню и крошилово зомби. Мне лично фильм понравился. Хорошо снят, не плохое содержание и звуковое сопровождение. Не стоит ждать от фильма чего-то выдающегося. Фильм просто снят на любителей определённого жанра.
Оценка фильма: 7 баллов.

Создавать темы 17-Окт-2015 15:49

[Профиль]  [ЛС] 
Показать сообщения:    
Ответить на тему

Текущее время: 17-Дек 16:56

Часовой пояс: UTC + 5



Вы не можете начинать темы
Вы не можете отвечать на сообщения
Вы не можете редактировать свои сообщения
Вы не можете удалять свои сообщения
Вы не можете голосовать в опросах
Вы не можете прикреплять файлы к сообщениям
Вы не можете скачивать файлы