Трудности ассимиляции / Fresh Off the Boat / Сезон: 2 / Серии: 1-7 из 13 (Линн Шелтон, Роберт Коэн, Джейк Кэздан) [2015, комедия, WEB-DLRip] (MVO : [Причудики])

Ответить на тему
 

Sunnat1999 ®

Стаж: 4 года 5 месяцев

Сообщений: 756

Симпатии: 416

Трудности ассимиляции / Fresh Off the BoatСезон-2 Серии 1-7 из 13-- Год выпуска: 2015
Страна: США
Жанр: комедия
Продолжительность: ~00:23:00 серия-Перевод: Любительский многоголосый закадровый [Причудики]
Режиссёр: Линн Шелтон, Роберт Коэн, Джейк Кэздан-В ролях: Констанс Ву, Рэндолл Парк, Хадсон Янг, Форрест Вилер, Йен Чен, Люсиль Сунг, Пол Шеер, Джиллиан Арменанте, Джейк Шоу-Описание: В центре сюжета находится азиатско-американское семейство, живущее в 1990-х годах, которое переезжает из Вашингтона в Орландо, штат Флорида, чтобы открыть мясной ресторан. Этот переезд становится для них культурным шоком. Ведь в Орландо нет Чайна-тауна…-Доп. информация: 
-Трудности ассимиляции 1-сезон: https://tas-ix.net/viewtopic.php?t=103851-Качество: WEB-DLRip
Формат: AVI
Видео кодек: XviD
Аудио кодек: MP3
Видео: XviD, ~ 1500 Кбит/с, 720x400
Аудио: MP3, 128 kb/s (2 ch)
-ВНИМАНИЕ! РАЗДАЧА ВЕДЁТСЯ ПУТЁМ ДОБАВЛЕНИЯ НОВЫХ СЕРИЙ!
ДОБАВЛЕНА 7-СЕРИЯ, ПЕРЕКАЧАЙТЕ ПОЖАЛУЙСТА ТОРРЕНТ!

Как обновить торрент

Когда раздача ведётся путём добавления новых серий, при каждом добавлении создётся новый торрент. Чтобы начать докачку новой серии, пользователям необходимо сделать следующее:
(1) остановить скачивание,
(2) удалить старый торрент у себя из клиента (старые серии удалять не надо),
(3) скачать новый торрент и запустить его у себя в клиенте вместо старого, при этом указать клиенту путь в старую папку, куда и должно происходить скачивание новых серий.
Ваш клиент при этом должен произвести хеширование (проверку) старой папки (если не производит сам - помогите ему сделать это), и будет докачивать только те серии, которых у вас ещё нет. Старые серии при этом не удаляются, а продолжают раздаваться!
Eсли вы уже удалили старые серии, то предотвратить повторную закачку старых серий можно, отжав галочку в соответсвующих местах при запуске нового торрента. По возможности, желательно не удалять старые серии как можно дольше, чтобы релизёр не столько продолжал раздавать старые серии, а смог сконцентрироваться на новых.

MediaInfo

General
Complete name : \Fresh.Off.the.Boat.S02.XviD.WEB-DLRip.Rus-Pri4udiki\Fresh.Off.the.Boat.S02E03.XviD.WEB-DLRip.Rus-Pri4udiki.avi
Format : AVI
Format/Info : Audio Video Interleave
File size : 253 MiB
Duration : 21mn 38s
Overall bit rate : 1 636 Kbps
Writing application : VirtualDubMod 1.5.10.2 (build 2540/release)
Writing library : VirtualDubMod build 2540/release
Video
ID : 0
Format : MPEG-4 Visual
Format profile : Advanced [email protected]
Format settings, BVOP : 2
Format settings, QPel : No
Format settings, GMC : No warppoints
Format settings, Matrix : Default (MPEG)
Codec ID : XVID
Codec ID/Hint : XviD
Duration : 21mn 38s
Bit rate : 1 499 Kbps
Width : 720 pixels
Height : 400 pixels
Display aspect ratio : 16:9
Frame rate : 23.976 fps
Color space : YUV
Chroma subsampling : 4:2:0
Bit depth : 8 bits
Scan type : Progressive
Compression mode : Lossy
Bits/(Pixel*Frame) : 0.217
Stream size : 232 MiB (92%)
Writing library : XviD 1.2.1 (UTC 2008-12-04)
Audio
ID : 1
Format : MPEG Audio
Format version : Version 1
Format profile : Layer 3
Codec ID : 55
Codec ID/Hint : MP3
Duration : 21mn 38s
Bit rate mode : Constant
Bit rate : 128 Kbps
Channel(s) : 2 channels
Sampling rate : 48.0 KHz
Compression mode : Lossy
Stream size : 19.8 MiB (8%)
Alignment : Aligned on interleaves
Interleave, duration : 42 ms (1.00 video frame)
Interleave, preload duratio : 504 ms
Writing library : LAME3.99r
Encoding settings : -m s -V 4 -q 2 -lowpass 17 -b 128
Скриншоты


Последний раз редактировалось: Sunnat1999 (2015-12-16 12:38), всего редактировалось 5 раз(а)

Создавать темы 28-Сен-2015 10:55

[Профиль]  [ЛС] 

[email protected]

Стаж: 6 лет 6 месяцев

Сообщений: 138

Симпатии: 10

Отличный сериал, спасибо! З.Ы. А нет возможности с английской дорожкой залить?

Создавать темы 01-Окт-2015 22:32

[Профиль]  [ЛС] 

[email protected]

Стаж: 6 лет 6 месяцев

Сообщений: 138

Симпатии: 10

Новые серии ожидаются?

Создавать темы 16-Окт-2015 16:11

[Профиль]  [ЛС] 

Sunnat1999 ®

Стаж: 4 года 5 месяцев

Сообщений: 756

Симпатии: 416

ВНИМАНИЕ! РАЗДАЧА ЗАМЕНЕНА С HDTVRip НА WEBDLRip.
ДОБАВЛЕНЫ 2-6 СЕРИИ!

Создавать темы 04-Дек-2015 16:30

[Профиль]  [ЛС] 

Sunnat1999 ®

Стаж: 4 года 5 месяцев

Сообщений: 756

Симпатии: 416

ДОБАВЛЕНА 7-СЕРИЯ, ПЕРЕКАЧАЙТЕ ПОЖАЛУЙСТА ТОРРЕНТ!

Создавать темы 16-Дек-2015 12:38

[Профиль]  [ЛС] 

[email protected]

Стаж: 6 лет 6 месяцев

Сообщений: 138

Симпатии: 10

Новые серии ожидаются?

Создавать темы 18-Янв-2016 21:07

[Профиль]  [ЛС] 
Показать сообщения:    
Ответить на тему

Текущее время: 18-Авг 00:31

Часовой пояс: UTC + 5



Вы не можете начинать темы
Вы не можете отвечать на сообщения
Вы не можете редактировать свои сообщения
Вы не можете удалять свои сообщения
Вы не можете голосовать в опросах
Вы не можете прикреплять файлы к сообщениям
Вы не можете скачивать файлы