Граница. Таёжный роман Серии: 1-8 из 8 +бонус (Александр Митта) [2000, Мелодрама, DVDRip]

Ответить на тему
 

фазилов ®

Стаж: 3 года 8 месяцев

Сообщений: 310

Симпатии: 344

ГРАНИЦА. ТАЁЖНЫЙ РОМАН (8 серий из 8 + Фильм о фильме)
Год выпуска: 2000
Производство: Россия
Жанр: Мелодрама
Продолжительность: ~00:51
Субтитры: нет
Режиссёр: Александр Митта
В ролях: Марат Башаров, Ольга Будина, Алексей Гуськов, Михаил Ефремов, Рената Литвинова, Андрей Панин, Елена Панова, Алексей Алексеев (II), Владимир Аникин, Тимур Бадалбейли, Петр Баранчеев, Сергей Баталов, Александр Баширов, Валентин Голубенко, Саид Дашук-Нигматулин, Владимир Епископосян, Алексей Жарков, Михаил Жигалов, Александр Карпиловский, Владимир Майсурадзе, Алексей Моисеев, Александра Назарова, Яна Николаева-Шивкова, Татьяна Окуневская, Борис Оплетаев, Алексей Панин, Наталья Позднякова, Галина Польских, Александр Робак, Евгений Сармонт, Александр Семчев, Владимир Симонов, Геннадий Соловьев, Владимир Тимофеев, Владимир Тимошенко, Ирина Томская, Алексей Усольцев, Ильхам Ханбудагов, Евгений Щетинин
Описание: Дальний Восток. 70-ые годы. Маленький гарнизон на границе с Китаем. Здесь, как и всюду, живут мужчины и женщины. У каждого - своя история, своя судьба, своя любовь. Общее одно - все они попали сюда однажды по долгу службы и остались надолго. Марина Голощекина (Ольга Будина) - милая, добрая, правильная. Галя Жгут (Елена Панова) - умная, страстная, решительная. Альбина Ворон (Рената Литвинова) - экстравагантная, непредсказуемая, тонкая. Три подруги, три сестры в счастье и несчастье, офицерские жены. Они помогают друг другу устоять в этом совершено не женском мире, где у каждого мужчины есть пистолет! А это значит, что любовь и опасность идут здесь рука об руку. Марина совершенно неожиданно встречает свою настоящую любовь молодого офицера Ивана Столбова (Марат Башаров). Об этой новой тайной любви узнают подруги. С одной стороны, за Марину можно порадоваться. Но как же ей радоваться самой, если позади пять лет брака с сильным, волевым и очень непредсказуемым Никитой Голощекиным (Алексей Гуськов)
Доп. информация:
Ника, 2002 год
Победитель (1):
* Лучшая мужская роль второго плана (Михаил Ефремов)
Номинации (3):
* Лучший режиссер (Александр Митта)
* Лучший сценарий
* Лучшая музыка

Качество: DVDRip
Формат: AVI
Видео кодек: DivX
Аудио кодек:MP3
Видео: 656x384 (1.71:1), 25 fps, DivX Codec 6.8 ~959 Kbps avg, 0.24 bit/pixel
Аудио: 48 kHz, MPEG Layer 3, 2 ch, ~128.00 kbps avg

MI


Format : AVI
Format/Info : Audio Video Interleave
File size : 401 MiB
Duration : 51mn 5s
Overall bit rate : 1 097 Kbps
Writing application : FairUse Wizard - http://fairusewizard.com
Writing library : The best and REALLY easy backup tool
Video
ID : 0
Format : MPEG-4 Visual
Format settings, BVOP : 1
Format settings, QPel : No
Format settings, GMC : No warppoints
Format settings, Matrix : Default (H.263)
Muxing mode : Packed bitstream
Codec ID : DX50
Codec ID/Hint : DivX 5
Duration : 51mn 5s
Bit rate : 959 Kbps
Width : 656 pixels
Height : 384 pixels
Display aspect ratio : 1.708
Frame rate : 25.000 fps
Color space : YUV
Chroma subsampling : 4:2:0
Bit depth : 8 bits
Scan type : Progressive
Compression mode : Lossy
Bits/(Pixel*Frame) : 0.152
Stream size : 350 MiB (87%)
Writing library : DivX 6.8.0 (UTC 2007-12-04)
Audio
ID : 1
Format : MPEG Audio
Format version : Version 1
Format profile : Layer 3
Mode : Joint stereo
Mode extension : MS Stereo
Codec ID : 55
Codec ID/Hint : MP3
Duration : 51mn 5s
Bit rate mode : Constant
Bit rate : 128 Kbps
Channel(s) : 2 channels
Sampling rate : 48.0 KHz
Compression mode : Lossy
Stream size : 46.8 MiB (12%)
Alignment : Aligned on interleaves
Interleave, duration : 40 ms (1.00 video frame)
Interleave, preload duration : 504 ms
Writing library : LAME3.97b

Скриншоты



Последний раз редактировалось: фазилов (2015-09-28 12:41), всего редактировалось 1 раз

Создавать темы 28-Сен-2015 11:38

[Профиль]  [ЛС] 
Показать сообщения:    
Ответить на тему

Текущее время: 25-Сен 14:33

Часовой пояс: UTC + 5



Вы не можете начинать темы
Вы не можете отвечать на сообщения
Вы не можете редактировать свои сообщения
Вы не можете удалять свои сообщения
Вы не можете голосовать в опросах
Вы не можете прикреплять файлы к сообщениям
Вы не можете скачивать файлы