Осаждённые упырями/мертвецами / Dead Heist (Бо Уэбб) [2007, США, ужасы, боевик, комедия, DVDRip] (DVO)

Ответить на тему
 

SkoroXod ®

Стаж: 2 года

Сообщений: 99

Симпатии: 78

Осаждённые упырями/мертвецами / Dead Heist
Страна: США
Жанр: ужасы, боевик, комедия
Год выпуска: 2007
Продолжительность: 01:12:22
Перевод: Любительский (двухголосый закадровый)
Cубтитры: нет
Режиссер: Бо Уэбб
В ролях: Биг Дэдди Кэйн, Брэндон Хардин, D.J. Нэйлор, Доминик Сантана, E-40, Трэйси Динвидди, Майкл Брэкстон, Крис Бэйли, Бон Крэшер, Зэк Ханнер
Описание: Молодой чернокожий энтузиаст, решил выйти в люди. Но для этого ему нужен начальный капитал, и тогда он пошел к деду, который в молодости успел ограбить более 20-ти банков, и отсидел за это полжизни. Парень решил научиться ограблению банков, и после ускоренного обучения, он и его друзья отправились на первое дело. Но прогадали они с днем нападения на банк, в тот день, когда они пошли на дело, через их город проходило толпа упырей, которые хотели крови. Они сбежали из военной лаборатории, и теперь они ищут еду.
Доп. информация: В фильме содержится ненормативная лексика!

Качество видео: DVDRip
Формат видео: AVI
Видео: Video: Xvid 640x352 25fps 1214kbps [V: mpeg4 advanced simple profile, yuv420p, 640x352, 1214 kb/s]
Аудио: Audio: MP3 48000Hz stereo 128kbps [A: mp3, 48000 Hz, stereo, 128 kb/s]

MediaInfo

Format : AVI
Format/Info : Audio Video Interleave
File size : 700 MiB
Duration : 1h 12mn
Overall bit rate : 1 352 Kbps
Writing application : VirtualDubMod 1.5.4.1 (build 2178/release)
Writing library : VirtualDubMod build 2178/release
Video
ID : 0
Format : MPEG-4 Visual
Format profile : Advanced [email protected]
Format settings, BVOP : 1
Format settings, QPel : No
Format settings, GMC : No warppoints
Format settings, Matrix : Default (MPEG)
Muxing mode : Packed bitstream
Codec ID : XVID
Codec ID/Hint : XviD
Duration : 1h 12mn
Bit rate : 1 214 Kbps
Width : 640 pixels
Height : 352 pixels
Display aspect ratio : 16:9
Frame rate : 25.000 fps
Color space : YUV
Chroma subsampling : 4:2:0
Bit depth : 8 bits
Scan type : Progressive
Compression mode : Lossy
Bits/(Pixel*Frame) : 0.216
Stream size : 629 MiB (90%)
Writing library : XviD 1.2.0.dev47 (UTC 2006-11-01)
Audio
ID : 1
Format : MPEG Audio
Format version : Version 1
Format profile : Layer 3
Mode : Joint stereo
Mode extension : MS Stereo
Codec ID : 55
Codec ID/Hint : MP3
Duration : 1h 12mn
Bit rate mode : Constant
Bit rate : 128 Kbps
Channel(s) : 2 channels
Sampling rate : 48.0 KHz
Compression mode : Lossy
Stream size : 66.3 MiB (9%)
Alignment : Aligned on interleaves
Interleave, duration : 40 ms (1.00 video frame)
Interleave, preload duration : 504 ms

Скриншот c названием фильма

Скриншоты






Создавать темы 28-Сен-2015 14:12

[Профиль]  [ЛС] 

Топик был перенесен из форума CamRip, DVDScr и т.п. в форум Фильмы до 2010
Grock

Создавать темы 28-Сен-2015 23:32

 
Показать сообщения:    
Ответить на тему

Текущее время: 21-Сен 01:13

Часовой пояс: UTC + 5



Вы не можете начинать темы
Вы не можете отвечать на сообщения
Вы не можете редактировать свои сообщения
Вы не можете удалять свои сообщения
Вы не можете голосовать в опросах
Вы не можете прикреплять файлы к сообщениям
Вы не можете скачивать файлы