Психопаспорт (фильм) / Gekijouban Psycho-Pass / Psycho-Pass: The Movie (Сиотани Наоёси) [Movie] [без хардсаба] [RUS(ext), JAP+SUB] [2015 г., триллер, фантастика, BDRip] [720p]

Ответить на тему
 

FireHowler ®

Стаж: 4 года 5 месяцев

Сообщений: 270

Симпатии: 153

- Год выпуска: 2015
Страна: Япония
Жанр: триллер, фантастика
Продолжительность: полнометражный фильм, 115 мин.
Выпуск: 09.01.2015
Перевод:
• русские субтитры от GMC (полные/вспомогательные)
• переводчики: Jarly, St_Ranger, редактор: Nerevar, Sovereign-Режиссер: Сиотани Наоёси
Студия: Production I.G
Описание:
Продолжение франшизы повествует нам о судьбе Синью Когами, о СЮВАС (Союз Юго-Восточных Азиатских Стран) и о всеконтролирующей системе «Сивилла».
Бывший генерал армии ЮВАС Чуян Хан, заручившись во время раскола Союза поддержкой Японии в обмен на создание специального района «Шамбала» под контролем Сивиллы, установил диктатуру в стране. В Японии Бюро Общественной Безопасности подавляет террористический акт представителей ЮВАС, пытавшихся уничтожить систему. В фрагментах памяти находят изображения небезызвестного Синью Когами, и офицер Цунэмори отправляется для расследования этого дела в Шамбалу.© exliky2116 год. Японское правительство начинает экспортировать автономных роботов-дронов с системой Сивиллы в «проблемные» страны, и Сивилла распространяется по всему миру. В качестве эксперимента решается запустить Сивиллу в ЮВАС (Юго-Восточных Азиатский Союз) — государство, истерзанное гражданской войной. Опыт оказался удачным, и благодаря новой системе прибрежный город Шамбала начинает благоденствовать в обстановке временного перемирия и безопасности. Однако затем СЮВАС посылает в Японию своих агентов с целью совершить теракт. Те успешно проникают сквозь охрану Сивиллы и наносят удар изнутри. Подозрение падает на конкретного человека. Ответственная за проведение расследования, следователь Цунэмори отправляется в Шамбалу. Истинная справедливость восстановит свою чистоту на новой земле.
©-Информационные ссылки: AniDB || World Art || MAL-Качество: BDRip
Энкод: Winter - RG Pantheon
Тип видео: без хардсаба, без линковки
Формат: mkv
Видео: x264 (Hi10p), 1280x720, ~4100 Kbps, 23.976 fps
Аудио JAP: AС3, 48000 Hz, 640 Kbps, 6ch
Аудио RUS: AС3, 48000 Hz, 640 Kbps, 6ch (внешними файлами)

Media Info

Видео
Идентификатор : 1
Формат : AVC
Формат/Информация : Advanced Video Codec
Профиль формата : High [email protected]
Параметр CABAC формата : Да
Параметр ReFrames формата : 9 кадров
Идентификатор кодека : V_MPEG4/ISO/AVC
Продолжительность : 1 ч. 53 м.
Битрейт : 4120 Кбит/сек
Ширина : 1280 пикселей
Высота : 720 пикселей
Соотношение сторон : 16:9
Режим частоты кадров : Постоянный
Частота кадров : 23,976 кадра/сек
Цветовое пространство : YUV
Субдискретизация насыщенности : 4:2:0
Битовая глубина : 10 бит
Тип развёртки : Прогрессивная
Бит/(Пиксели*Кадры) : 0.186
Размер потока : 3,27 Гбайт (85%)
Библиотека кодирования : x264 core 132 r2309 3b1f1f7
Настройки программы : cabac=1 / ref=9 / deblock=1:-2:-2 / analyse=0x3:0x133 / me=umh / subme=9 / psy=1 / psy_rd=0.90:0.00 / mixed_ref=1 / me_range=24 / chroma_me=1 / trellis=2 / 8x8dct=1 / cqm=0 / deadzone=21,11 / fast_pskip=1 / chroma_qp_offset=-2 / threads=12 / lookahead_threads=2 / sliced_threads=0 / nr=0 / decimate=0 / interlaced=0 / bluray_compat=0 / constrained_intra=0 / bframes=8 / b_pyramid=2 / b_adapt=2 / b_bias=0 / direct=1 / weightb=1 / open_gop=0 / weightp=2 / keyint=250 / keyint_min=23 / scenecut=40 / intra_refresh=0 / rc=crf / mbtree=0 / crf=16.2 / qcomp=0.70 / qpmin=9 / qpmax=40 / qpstep=4 / ip_ratio=1.40 / pb_ratio=1.30 / aq=1:0.90
Default : Нет
Forced : Нет
Аудио
Идентификатор : 2
Формат : AC-3
Формат/Информация : Audio Coding 3
Расширение режима : CM (complete main)
Параметр Endianness формата : Big
Идентификатор кодека : A_AC3
Продолжительность : 1 ч. 53 м.
Вид битрейта : Постоянный
Битрейт : 640 Кбит/сек
Каналы : 6 каналов
Расположение каналов : Front: L C R, Side: L R, LFE
Частота : 48,0 КГц
Метод сжатия : С потерями
Размер потока : 520 Мбайт (13%)
Язык : Japanese
Default : Да
Forced : Нет

Отличия

https://tas-ix.net/viewtopic.php?t=108796 - Качество лучше, 10bit.

Скриншоты





Постер и Сейю

Исполнители главных ролей: Томокадзу Сэки (в аниме Синъя Когами) и Кана Ханадзава (в аниме Аканэ Цунэмори).

На презентации фильма (слева направо): актёры-сэйю Миюки Савасиро (в аниме Сион Караномори), Сидзука Ито (в аниме Яёи Кунидзука), Аянэ Сакура (в аниме Мика Симоцуки), Томокадзу Сэки (в аниме Синъя Когами), Кана Ханадзава (в аниме Аканэ Цунэмори), Кэндзи Нодзима (в аниме Нобутика Гинодза) и Такахиро Сакурай (в аниме Сё Хинакава и Сёго Макисима); режиссёры Наоёси Сиотани и Кацуюки Мотохиро.

Создавать темы 29-Сен-2015 12:32

[Профиль]  [ЛС] 

FireHowler ®

Стаж: 4 года 5 месяцев

Сообщений: 270

Симпатии: 153

монетка нынче на все подряд летит?)

Комментарий от SNIL


Ну это думаю уже решать нам! К тому же тебе то чем мешает?

Создавать темы 29-Сен-2015 23:57

[Профиль]  [ЛС] 

FireHowler ®

Стаж: 4 года 5 месяцев

Сообщений: 270

Симпатии: 153

Тем что скачивают, и уходят. А поддерживать раздачу вечно, я не намерен.

Создавать темы 30-Сен-2015 10:17

[Профиль]  [ЛС] 

SNIL

Стаж: 5 лет 9 месяцев

Сообщений: 2624

Симпатии: 341

FireHowler, Человек который обычно не сидит на раздачах и так уйдёт! А сидеры и с золотом останутся.

Создавать темы 30-Сен-2015 10:27

[Профиль]  [ЛС] 

FireHowler ®

Стаж: 4 года 5 месяцев

Сообщений: 270

Симпатии: 153

Окай...
Тут: upload: 34,97 GB > Полного источника не было: Никогда | Личеров: 4 [ 0 KB/s ]
Там: upload: 36,34 GB > Сидов: 8 [ 317 KB/s ] | Личеров: 2 [ 100 KB/s ]

Комментарий от [email protected]


Да уж, походу Вы балуетесь мультитреком, ибо при 2-3 скачавших, аплоад никак не мог достичь 35 Гб, да и один человек все таки сидирует, и это нормальная статистика при 2 скачавших.

Создавать темы 30-Сен-2015 17:47

[Профиль]  [ЛС] 

SNIL

Стаж: 5 лет 9 месяцев

Сообщений: 2624

Симпатии: 341

953504Зарегистрирован:  2 дня
Не айс бросать раздачу через 2 дня

Создавать темы 01-Окт-2015 13:08

[Профиль]  [ЛС] 

FireHowler ®

Стаж: 4 года 5 месяцев

Сообщений: 270

Симпатии: 153

Не айс вам модератору свалить на другой трекер, зазывая всех с собой.

Создавать темы 01-Окт-2015 14:26

[Профиль]  [ЛС] 

Азиз87

Стаж: 4 года 11 месяцев

Сообщений: 752

Симпатии: 143

953571Не айс вам модератору свалить на другой трекер, зазывая всех с собой.
*) Рыба ищет где поглубже, а человек где получше. Хотя идилия всех любителей анимации является постоянный доступ к контенту, но тут правильней сказать это "занять" место в первых рядах пионеров в развитии нового ресурса. Дабы в конечном счете он приобрел очертания "мечты" (рая) всех анимешников al
Для обладателей "хорошей" внешки и/или быть обладателем Галс/Турон телеком интернет услуг данный вопрос не актуален.

Создавать темы 01-Окт-2015 15:23

[Профиль]  [ЛС] 

SNIL

Стаж: 5 лет 9 месяцев

Сообщений: 2624

Симпатии: 341

FireHowler, Ну технически я модератор и там (да и не это главное)

Создавать темы 01-Окт-2015 22:27

[Профиль]  [ЛС] 

RocknRollа

Стаж: 3 года 8 месяцев

Сообщений: 38

Симпатии: 6

LOL, Кина не будет?) Ну не суть... А где данный ресурс? С внешки туда не попасть?

Создавать темы 02-Дек-2015 15:47

[Профиль]  [ЛС] 

Lie

Стаж: 2 года 6 месяцев

Сообщений: 25

Симпатии: 38

рутрекер>автор раздачи агленн

Создавать темы 03-Дек-2015 18:20

[Профиль]  [ЛС] 
Показать сообщения:    
Ответить на тему

Текущее время: 20-Окт 11:45

Часовой пояс: UTC + 5



Вы не можете начинать темы
Вы не можете отвечать на сообщения
Вы не можете редактировать свои сообщения
Вы не можете удалять свои сообщения
Вы не можете голосовать в опросах
Вы не можете прикреплять файлы к сообщениям
Вы не можете скачивать файлы