Полиция Гавайев / Гавайи 5-0 / Hawaii Five-0 / Сезон: 6 / Серии: 1-25 из 25 (Брайан Спайсер / Bryan Spicer) [2015, боевик, драма, криминал, комедия, WEB-DLRip] MVO (LostFilm)

Страницы :  1, 2  След.

Ответить на тему
 

GRIMM ®

Стаж: 6 лет 11 месяцев

Сообщений: 811

Симпатии: 172

Полиция Гавайи 5-0 / Hawaii Five-0
Сезон 6 Серия 1-25

-Год выпуска: 2015
Страна: США
Жанр: боевик, драма, криминал, комедия
Продолжительность: ~ 00:43:00-Перевод: Профессиональный многоголосый закадровый LostFilm-Режиссёр: Брайан Спайсер-В ролях: Алекс О`Лафлин, Скотт Каан, Дэниэл Дэ Ким, Грэйс Пак, Маси Ока, Тайлор Уайли, Тейлор Груббс, Лорен Джерман, Терри О’Куинн, Клер Вандер Бум, Брайан Янг, Дэннис Чун, Марк Дакаскос, Лариса Олейник, Уилл Юн Ли, Рейко Эйлсворт, Мишелль Борт, Уильям Сэдлер, Пол Эдни, Джин Смарт, Иэн Энтони Дэйл, Ричард Т. Джонс, Тэрин и др.-Описание: Детектив Стив МакГарретт, бывший морской офицер с массой наград, а теперь полицейский, возвращается в Оаху расследовать убийство отца. Он остается на острове, после того, как губернатор штата Гавайи убедил его возглавить новую команду. Команда будет действовать по его правилам, при поддержке губернатора, без бюрократических проволочек, и с полным иммунитетом, все это — чтобы поймать самую крупную «дичь» в городе.
К МакГаррету присоединяется детектив Дэнни «Данно» Уильямс, недавно переведенный из Нью-Джерси полицейский, который предпочел бы небоскребы пляжам, но готов бороться с преступностью, чтобы его 8-летняя дочь чувствовала себя на островах в безопасности; и Чин Хо Келли, бывший детектив полиции Гонолулу, которого ошибочно обвинили в коррупции, и который когда-то был протеже отца МакГаррета. Двоюродная сестра Чина, Коно, прекрасная и бесстрашная уроженка островов, недавно выпустилась из академии, и рвется доказать, что она достойна места в элите департамента. МакГаррет клянется завершить дело отца, а члены нового спецотряда Five-O, может, и грызутся друг с другом, но настроены уничтожить преступность в пятидесятом штате.
-Качество: WEB-DLRip
Формат: AVI
Видео кодек: XviD
Аудио кодек: MP3
Видео: XviD, 720x400 (16:9), 23.976 fps, 1831 kbps, 0.265 bit/pixel
Аудио: MPEG Audio, 2 ch, 48 kHz, 192 kbps avg, MVO LostFilm

MediaInfo

Общее
Формат : AVI
Формат/Информация : Audio Video Interleave
Размер файла : 672 Мбайт
Продолжительность : 44 м.
Режим общего битрейта : Переменный
Общий поток : 2116 Кбит/сек
Программа кодирования : Nandub v1.0rc2
Библиотека кодирования : Nandub build 1853/release
Видео
Идентификатор : 0
Формат : MPEG-4 Visual
Профиль формата : Advanced [email protected]
Параметр BVOP формата : Нет
Параметр QPel формата : Нет
Параметр GMC формата : Без точки перехода
Параметр матрицы формата : Default (H.263)
Идентификатор кодека : XVID
Идентификатор кодека/Подсказка : XviD
Продолжительность : 44 м.
Битрейт : 1831 Кбит/сек
Ширина : 720 пикселей
Высота : 400 пикселей
Соотношение сторон : 16:9
Частота кадров : 23,976 кадра/сек
Цветовое пространство : YUV
Субдискретизация насыщенности : 4:2:0
Битовая глубина : 8 бит
Тип развёртки : Прогрессивная
Метод сжатия : С потерями
Бит/(Пиксели*Кадры) : 0.265
Размер потока : 581 Мбайт (87%)
Библиотека кодирования : XviD 1.2.1 (UTC 2008-12-04)
Аудио
Идентификатор : 1
Формат : MPEG Audio
Версия формата : Version 1
Профиль формата : Layer 3
Режим : Joint stereo
Расширение режима : MS Stereo
Идентификатор кодека : 55
Идентификатор кодека/Подсказка : MP3
Продолжительность : 44 м.
Вид битрейта : Переменный
Битрейт : 192 Кбит/сек
Каналы : 2 канала
Частота : 48,0 КГц
Метод сжатия : С потерями
Размер потока : 61,0 Мбайт (9%)
Выравнивание : Соединение по промежуткам
Библиотека кодирования : LAME3.97b
Настройки программы : -m j -V 4 -q 3 -lowpass 18.6 --abr 192

Скриншоты




Последний раз редактировалось: GRIMM (2016-05-21 11:02), всего редактировалось 23 раз(а)

Создавать темы 29-Сен-2015 23:08

[Профиль]  [ЛС] 

GRIMM ®

Стаж: 6 лет 11 месяцев

Сообщений: 811

Симпатии: 172

Добавил 2 серию

Создавать темы 07-Окт-2015 22:36

[Профиль]  [ЛС] 

GRIMM ®

Стаж: 6 лет 11 месяцев

Сообщений: 811

Симпатии: 172

Добавил 3 серию

Создавать темы 14-Окт-2015 09:23

[Профиль]  [ЛС] 

GRIMM ®

Стаж: 6 лет 11 месяцев

Сообщений: 811

Симпатии: 172

Добавил 4 серию

Создавать темы 21-Окт-2015 23:25

[Профиль]  [ЛС] 

GRIMM ®

Стаж: 6 лет 11 месяцев

Сообщений: 811

Симпатии: 172

Добавил 5 серию

Создавать темы 28-Окт-2015 21:53

[Профиль]  [ЛС] 

GRIMM ®

Стаж: 6 лет 11 месяцев

Сообщений: 811

Симпатии: 172

Добавил 6 серию

Создавать темы 04-Ноя-2015 21:34

[Профиль]  [ЛС] 

GRIMM ®

Стаж: 6 лет 11 месяцев

Сообщений: 811

Симпатии: 172

Добавил 7 серию

Создавать темы 10-Ноя-2015 21:24

[Профиль]  [ЛС] 

GRIMM ®

Стаж: 6 лет 11 месяцев

Сообщений: 811

Симпатии: 172

Добавил 8 серию

Создавать темы 19-Ноя-2015 18:29

[Профиль]  [ЛС] 

GRIMM ®

Стаж: 6 лет 11 месяцев

Сообщений: 811

Симпатии: 172

Добавил 9 серию

Создавать темы 28-Ноя-2015 22:17

[Профиль]  [ЛС] 

GRIMM ®

Стаж: 6 лет 11 месяцев

Сообщений: 811

Симпатии: 172

Добавил 10 серию

Создавать темы 18-Дек-2015 23:29

[Профиль]  [ЛС] 

GRIMM ®

Стаж: 6 лет 11 месяцев

Сообщений: 811

Симпатии: 172

Добавил 11 серию

Создавать темы 13-Янв-2016 21:53

[Профиль]  [ЛС] 

GRIMM ®

Стаж: 6 лет 11 месяцев

Сообщений: 811

Симпатии: 172

Добавил 12-13 серию

Создавать темы 29-Янв-2016 18:00

[Профиль]  [ЛС] 

GRIMM ®

Стаж: 6 лет 11 месяцев

Сообщений: 811

Симпатии: 172

Добавил 14 серию

Создавать темы 16-Фев-2016 17:27

[Профиль]  [ЛС] 

GRIMM ®

Стаж: 6 лет 11 месяцев

Сообщений: 811

Симпатии: 172

Добавил 15 серию

Создавать темы 25-Фев-2016 21:59

[Профиль]  [ЛС] 

GRIMM ®

Стаж: 6 лет 11 месяцев

Сообщений: 811

Симпатии: 172

Добавил 16 серию

Создавать темы 03-Мар-2016 17:24

[Профиль]  [ЛС] 
Показать сообщения:    
Ответить на тему

Текущее время: 13-Дек 10:38

Часовой пояс: UTC + 5



Вы не можете начинать темы
Вы не можете отвечать на сообщения
Вы не можете редактировать свои сообщения
Вы не можете удалять свои сообщения
Вы не можете голосовать в опросах
Вы не можете прикреплять файлы к сообщениям
Вы не можете скачивать файлы