Терминатор: Генезис / Terminator: Genisys (Алан Тейлор / Alan Taylor) [2015, Выпущено: США, фантастика, боевик, триллер, приключения, BDRip] [Чистый звук] (Dub : Чистый звук [5.1]) (Sub Eng + Original Eng)

Ответить на тему
 

ruwind ®

Стаж: 3 года 7 месяцев

Сообщений: 13

Симпатии: 16

Терминатор: Генезис / Terminator: Genisys / Чистый звук

Страна: Выпущено: США
Жанр: фантастика, боевик, триллер, приключения
Год выпуска: 2015
Продолжительность: 02:05:43
Перевод: Профессиональный (дублированный) Доп. инфо о переводе Чистый звук [5.1]
Cубтитры: английские
Оригинальная аудиодорожка: английский
Режиссер: Алан Тейлор / Alan Taylor
В ролях: Арнольд Шварценеггер, Джейсон Кларк, Эмилия Кларк, Джай Кортни, Дж.К. Симмонс, Дайо Окенийи, Мэтт Смит, Кортни Б. Вэнс, Бён Хон Ли, Майкл Глэдис, Сандрин Холт, Уэйн Баструп, Грегори Алан Уильямс, Отто Санчес, Мэтти Ферраро, Грифф Ферст, Йен Этеридж, Нолан Гросс, Сет Меривезер, Афемо Омилами
Описание: Частые погружения людей и терминаторов в далекое прошлое с целью изменить будущее привели в перелому в полотне времени. Теперь солдат Кайл Риз, который был отравлен Джоном Коннором, оказывается в мире, где все не так, как он себе представлял. Там герой встречает устаревшую модель робота Т-800, который был призван, чтобы защитить Сару из другого витка времени. Безжалостный враг наступает не только из будущего, но и из прошлого. Против Риза и его подзащитной выступают сразу несколько киборгов-убийц, но самое страшное — сам Джон Коннор, прибывший выполнить очень неприятную миссию.
Качество видео: BDRip
Формат видео: MKV
Видео: 1920x804, 7558 Kbps, 23.976fps
Аудио: AC3, 6 ch, 640 kbps (Rus)
Аудио 2: AC3, 6 ch, 640 kbps (Eng)

MediaInfo

Video #1
ID : 1
Format : AVC
Format/Info : Advanced Video Codec
Format profile : [email protected]
Format settings, CABAC : Yes
Format settings, ReFrames : 5 frames
Codec ID : V_MPEG4/ISO/AVC
Duration : 2h 5mn
Bit rate : 7 558 Kbps
Width : 1 920 pixels
Height : 804 pixels
Display aspect ratio : 2.40:1
Frame rate mode : Constant
Frame rate : 23.976 fps
Color space : YUV
Chroma subsampling : 4:2:0
Bit depth : 8 bits
Scan type : Progressive
Bits/(Pixel*Frame) : 0.204
Stream size : 6.48 GiB (84%)
Title : Terminator Genisys.2015.BDRip.1080p
Writing library : x264 core 148 r2597 e86f3a1
Encoding settings : cabac=1 / ref=5 / deblock=1:-3:-3 / analyse=0x3:0x133 / me=umh / subme=10 / psy=1 / psy_rd=1.00:0.10 / mixed_ref=1 / me_range=32 / chroma_me=1 / trellis=2 / 8x8dct=1 / cqm=0 / deadzone=21,11 / fast_pskip=0 / chroma_qp_offset=-3 / threads=6 / lookahead_threads=1 / sliced_threads=0 / nr=0 / decimate=1 / interlaced=0 / bluray_compat=0 / constrained_intra=0 / bframes=8 / b_pyramid=2 / b_adapt=2 / b_bias=0 / direct=3 / weightb=1 / open_gop=0 / weightp=2 / keyint=240 / keyint_min=23 / scenecut=40 / intra_refresh=0 / rc=2pass / mbtree=0 / bitrate=7558 / ratetol=1.0 / qcomp=0.60 / qpmin=0 / qpmax=69 / qpstep=4 / cplxblur=20.0 / qblur=0.5 / ip_ratio=1.40 / pb_ratio=1.30 / aq=1:1.00
Language : English
Default : No
Forced : No
Audio #2
ID : 2
Format : AC-3
Format/Info : Audio Coding 3
Mode extension : CM (complete main)
Format settings, Endianness : Big
Codec ID : A_AC3
Duration : 2h 5mn
Bit rate mode : Constant
Bit rate : 640 Kbps
Channel count : 6 channels
Channel positions : Front: L C R, Side: L R, LFE
Sampling rate : 48.0 KHz
Bit depth : 16 bits
Compression mode : Lossy
Stream size : 575 MiB (7%)
Title : DUB Line 5.1
Language : Russian
Default : Yes
Forced : Yes
Audio #3
ID : 3
Format : AC-3
Format/Info : Audio Coding 3
Mode extension : CM (complete main)
Format settings, Endianness : Big
Codec ID : A_AC3
Duration : 2h 5mn
Bit rate mode : Constant
Bit rate : 640 Kbps
Channel count : 6 channels
Channel positions : Front: L C R, Side: L R, LFE
Sampling rate : 48.0 KHz
Bit depth : 16 bits
Compression mode : Lossy
Stream size : 575 MiB (7%)
Language : English
Default : No
Forced : No
Text #4
ID : 4
Format : UTF-8
Codec ID : S_TEXT/UTF8
Codec ID/Info : UTF-8 Plain Text
Title : Full
Language : Russian
Default : No
Forced : No
Text #5
ID : 5
Format : UTF-8
Codec ID : S_TEXT/UTF8
Codec ID/Info : UTF-8 Plain Text
Title : Full
Language : English
Default : No
Forced : No

Скриншот c названием фильма

Скриншоты

Создавать темы 01-Окт-2015 20:58

[Профиль]  [ЛС] 

Топик был перенесен из форума Зарубежное кино в форум Зарубежное кино
Mixer City

Создавать темы 02-Окт-2015 02:17

 
Показать сообщения:    
Ответить на тему

Текущее время: 21-Авг 04:13

Часовой пояс: UTC + 5



Вы не можете начинать темы
Вы не можете отвечать на сообщения
Вы не можете редактировать свои сообщения
Вы не можете удалять свои сообщения
Вы не можете голосовать в опросах
Вы не можете прикреплять файлы к сообщениям
Вы не можете скачивать файлы