Любовный прогноз / Love Forecast (Пак Чжин Пё, Ли Бён Хон, Ли Хан (Park Jin Pyo, Lee Byeong Hun, Lee Han)) [2015, Южная Корея, комедия, мелодрама, HDRip] (MVO : [STEPonee])

Ответить на тему
 

Jasur S ®

Стаж: 4 года 4 месяца

Сообщений: 110

Симпатии: 111

Любовный прогноз / Love Forecast- Страна: Южная Корея
Жанр: комедия, мелодрама
Год выпуска: 2015
Продолжительность: 01:56:26
Перевод: Любительский (многоголосый закадровый) Доп. инфо о переводе [STEPonee]
Cубтитры: нет
-
Режиссер: Пак Чжин Пё, Ли Бён Хон, Ли Хан (Park Jin Pyo, Lee Byeong Hun, Lee Han)-В ролях: Ли Сын Ги (Lee Seung Gi) - Чжун Су
Мун Чхе Вон (Moon Chae Won) - Хён У
Ли Со Чжин (Lee Seo Jin) - Дон Чжин
Хва Ён (Hwa Young) - Хи Чжин
Чо Чжун Ён (Jung Joon Young) - Хё Бон
Описание: Скромный учитель Чжун Су и "богиня погоды", ведущая выпуска прогнозов на ТВ Хён У, дружат с детства. У них отличные отношения, друг для друга они, что называется, свои в доску, но каждому из них по отдельности совершенно не везёт в любви.
-
Качество видео: HDRip
Формат видео: AVI
Видео: Xvid 720x304 23.976fps [Video]
Аудио: Dolby AC3 48000Hz stereo 192kbps [Audio

MediaInfo

General
Complete name : D:\Love Forecast\Love.Forecast.2015.HDRip.XviD.AC3.MVO.STEPonee.avi
Format : AVI
Format/Info : Audio Video Interleave
File size : 1.47 GiB
Duration : 1h 58mn
Overall bit rate : 1 777 Kbps
Writing application : VirtualDubMod 1.5.10.2 (build 2542/release)
Writing library : VirtualDubMod build 2542/release
Video
ID : 0
Format : MPEG-4 Visual
Format profile : Advanced [email protected]
Format settings, BVOP : Yes
Format settings, QPel : No
Format settings, GMC : No warppoints
Format settings, Matrix : Default (H.263)
Codec ID : XVID
Codec ID/Hint : XviD
Duration : 1h 58mn
Bit rate : 1 578 Kbps
Width : 720 pixels
Height : 304 pixels
Display aspect ratio : 2.35:1
Frame rate : 23.976 fps
Color space : YUV
Chroma subsampling : 4:2:0
Bit depth : 8 bits
Scan type : Progressive
Compression mode : Lossy
Bits/(Pixel*Frame) : 0.301
Stream size : 1.31 GiB (89%)
Writing library : XviD 1.2.1 (UTC 2008-12-04)
Audio
ID : 1
Format : AC-3
Format/Info : Audio Coding 3
Mode extension : CM (complete main)
Format settings, Endianness : Big
Codec ID : 2000
Duration : 1h 56mn
Bit rate mode : Constant
Bit rate : 192 Kbps
Channel(s) : 2 channels
Channel positions : Front: L R
Sampling rate : 48.0 KHz
Bit depth : 16 bits
Compression mode : Lossy
Stream size : 160 MiB (11%)
Alignment : Split accross interleaves
Interleave, duration : 42 ms (1.01 video frame)
Interleave, preload duration : 500 ms

Скриншоты






Создавать темы 01-Окт-2015 22:59

[Профиль]  [ЛС] 

FoxSage

Стаж: 4 года 1 месяц

Сообщений: 197

Симпатии: 19

Пасиб вечерком скачаю

Создавать темы 02-Окт-2015 06:55

[Профиль]  [ЛС] 

Jasur S ®

Стаж: 4 года 4 месяца

Сообщений: 110

Симпатии: 111

953650Пасиб вечерком скачаю
арзмиди) и приятного просмотра)

Создавать темы 02-Окт-2015 14:26

[Профиль]  [ЛС] 

Боксер

Стаж: 2 года

Сообщений: 54

Симпатии: 34

Спасибо большое +
БЗ
Может и на алллтор зальете. Там народу больше и любителей много

Создавать темы 02-Окт-2015 16:43

[Профиль]  [ЛС] 

Jasur S ®

Стаж: 4 года 4 месяца

Сообщений: 110

Симпатии: 111

953694Спасибо большое +
БЗ
Может и на алллтор зальете. Там народу больше и любителей много
арзмиди) и вам приятного просмотра)
у меня есть профиль но мне как то лень по нескольким сайтам оформлять) может вы к нам их позовете?) да и в любом случае кто ищет тот найдет))

Создавать темы 02-Окт-2015 18:11

[Профиль]  [ЛС] 
Показать сообщения:    
Ответить на тему

Текущее время: 24-Авг 06:15

Часовой пояс: UTC + 5



Вы не можете начинать темы
Вы не можете отвечать на сообщения
Вы не можете редактировать свои сообщения
Вы не можете удалять свои сообщения
Вы не можете голосовать в опросах
Вы не можете прикреплять файлы к сообщениям
Вы не можете скачивать файлы