Интерны / Сезон: 13 / Серии: 1-20 из 20 (Максим Пежемский, Дина Штурманова) [2015, Комедия, ситком, медицина, WEB-DLRip-AVC]

Ответить на тему
 

Sunnat1999 ®

Стаж: 4 года 6 месяцев

Сообщений: 756

Симпатии: 416

13-сезон. Серии 1-20 из 20- Год выпуска: 2015
Производство: Россия / ТНТ
Жанр: Комедия, ситком, медицина
Продолжительность: ~25 мин серия
Субтитры: нет-Режиссёр: Максим Пежемский, Дина Штурманова-В ролях: Иван Охлобыстин, Илья Глинников, Александр Ильин мл., Вадим Демчог, Аглая Тарасова, Юлия Назаренко, Светлана Камынина, Яна Гурьянова, Один Ланд Байрон, Татьяна Лянник, Светлана Пермякова, Азамат Мусагалиев, Александр Ляпин-Описание: Люба уже не так занята личной жизнью своих коллег, ведь у нее появилась своя собственная. Алкоголизм Купитмана стал не настолько ярко выраженным, ведь теперь у него появилась дама сердца, которая не только ночью согреет постель, но и перекинется стопочкой – другой со своим кучерявым дерматовенерологом. Быков уже не срывается, как раньше, на всем живом и дышащем, ведь его семейная жизнь с Кисегач сделала мужчину гораздо мягче и лояльней. Романенко больше не шастает по ночным клубам в поисках очередной длинноногой красавицы на одну ночь, ведь его сердце покорила строптивая и непокорная девушка – интерн Софья. Сама же племянница Купитмана в восторге. Еще не так, давно даже не рассчитывая на внимание со стороны Глеба, она полностью меняет его отношение к противоположному полу и получает неожиданное предложение руки и сердца самого заядлого холостяка и ловеласа больницы.-Доп. информация:
 

-ВНИМАНИЕ! РАЗДАЧА ВЕДЁТСЯ ПУТЁМ ДОБАВЛЕНИЯ НОВЫХ СЕРИЙ!
ДОБАВЛЕНА 20 СЕРИЯ, ПОЖАЛУЙСТА ОБНОВИТЕ ТОРРЕНТ!

Как обновить торрент

Когда раздача ведётся путём добавления новых серий, при каждом добавлении создётся новый торрент. Чтобы начать докачку новой серии, пользователям необходимо сделать следующее:
(1) остановить скачивание,
(2) удалить старый торрент у себя из клиента (старые серии удалять не надо),
(3) скачать новый торрент и запустить его у себя в клиенте вместо старого, при этом указать клиенту путь в старую папку, куда и должно происходить скачивание новых серий.
Ваш клиент при этом должен произвести хеширование (проверку) старой папки (если не производит сам - помогите ему сделать это), и будет докачивать только те серии, которых у вас ещё нет. Старые серии при этом не удаляются, а продолжают раздаваться!
Eсли вы уже удалили старые серии, то предотвратить повторную закачку старых серий можно, отжав галочку в соответсвующих местах при запуске нового торрента. По возможности, желательно не удалять старые серии как можно дольше, чтобы релизёр не столько продолжал раздавать старые серии, а смог сконцентрироваться на новых.
-Качество: WEB-DLRip-AVC
Формат: MKV
Видео кодек: MPEG-4
Аудио кодек: AC3
Видео: MPEG-4 AVC, 2000 kbps, 1024x576
Аудио: AC3, 2 ch, 192 Кбит/с

MI

General
Unique ID : 226209553140019989157498890543150666549 (0xAA2E600DC13C66479D73D12911C01335)
Complete name : \Interny.(13.sezon).2015.WEB-DL.(AVC)\Interny-13.(01.seriya).2015.WEB-DL.(AVC).mkv
Format : Matroska
Format version : Version 4 / Version 2
File size : 390 MiB
Duration : 24mn 50s
Overall bit rate : 2 195 Kbps
Encoded date : UTC 2015-09-07 20:54:02
Writing application : mkvmerge v8.1.0 ('Psychedelic Postcard') 32bit
Writing library : Lavf56.22.100
DURATION : 00:24:50.720000000
NUMBER_OF_FRAMES : 46585
NUMBER_OF_BYTES : 35777280
_STATISTICS_WRITING_APP : mkvmerge v8.1.0 ('Psychedelic Postcard') 32bit
_STATISTICS_WRITING_DATE_UT : 2015-09-07 19:01:09
_STATISTICS_TAGS : BPS DURATION NUMBER_OF_FRAMES NUMBER_OF_BYTES
Video
ID : 1
Format : AVC
Format/Info : Advanced Video Codec
Format profile : [email protected]
Format settings, CABAC : Yes
Format settings, ReFrames : 6 frames
Codec ID : V_MPEG4/ISO/AVC
Duration : 24mn 50s
Bit rate : 2 000 Kbps
Width : 1 024 pixels
Height : 576 pixels
Display aspect ratio : 16:9
Frame rate mode : Constant
Frame rate : 25.000 fps
Standard : Component
Color space : YUV
Chroma subsampling : 4:2:0
Bit depth : 8 bits
Scan type : Progressive
Bits/(Pixel*Frame) : 0.136
Stream size : 348 MiB (89%)
Writing library : x264 core 144 r2525
Encoding settings : cabac=1 / ref=6 / deblock=1:0:0 / analyse=0x3:0x102 / me=umh / subme=7 / psy=1 / psy_rd=1.00:1.00 / mixed_ref=0 / me_range=32 / chroma_me=1 / trellis=1 / 8x8dct=1 / cqm=0 / deadzone=21,21 / fast_pskip=1 / chroma_qp_offset=-4 / threads=6 / lookahead_threads=1 / sliced_threads=0 / nr=0 / decimate=1 / interlaced=0 / bluray_compat=0 / constrained_intra=0 / bframes=6 / b_pyramid=0 / b_adapt=2 / b_bias=6 / direct=3 / weightb=1 / open_gop=1 / weightp=2 / keyint=250 / keyint_min=25 / scenecut=40 / intra_refresh=0 / rc_lookahead=40 / rc=2pass / mbtree=1 / bitrate=2000 / ratetol=1.0 / qcomp=0.90 / qpmin=16 / qpmax=69 / qpstep=10 / cplxblur=20.0 / qblur=0.5 / vbv_maxrate=45000 / vbv_bufsize=51000 / nal_hrd=none / filler=0 / ip_ratio=1.40 / aq=1:1.00
Default : Yes
Forced : Yes
Color range : Limited
DURATION : 00:24:50.880000000
NUMBER_OF_FRAMES : 37272
NUMBER_OF_BYTES : 373026175
_STATISTICS_WRITING_APP : mkvmerge v8.1.0 ('Psychedelic Postcard') 32bit
_STATISTICS_WRITING_DATE_UT : 2015-09-07 19:01:09
_STATISTICS_TAGS : BPS DURATION NUMBER_OF_FRAMES NUMBER_OF_BYTES
Audio
ID : 2
Format : AC-3
Format/Info : Audio Coding 3
Mode extension : CM (complete main)
Format settings, Endianness : Big
Codec ID : A_AC3
Duration : 24mn 50s
Bit rate mode : Constant
Bit rate : 192 Kbps
Channel(s) : 2 channels
Channel positions : Front: L R
Sampling rate : 48.0 KHz
Compression mode : Lossy
Delay relative to video : -40ms
Stream size : 34.1 MiB (9%)
Language : Russian
Default : Yes
Forced : Yes
Скриншоты


Последний раз редактировалось: Sunnat1999 (2015-10-26 08:36), всего редактировалось 5 раз(а)

Создавать темы 02-Окт-2015 08:28

[Профиль]  [ЛС] 

Sunnat1999 ®

Стаж: 4 года 6 месяцев

Сообщений: 756

Симпатии: 416

ДОБАВЛЕНЫ 16-17 СЕРИИ, ПОЖАЛУЙСТА ОБНОВИТЕ ТОРРЕНТ!

Создавать темы 02-Окт-2015 08:28

[Профиль]  [ЛС] 

Sunnat1999 ®

Стаж: 4 года 6 месяцев

Сообщений: 756

Симпатии: 416

ДОБАВЛЕНА 18 СЕРИЯ, ОБНОВИТЕ ПОЖАЛУЙСТА ТОРРЕНТ!

Создавать темы 06-Окт-2015 08:53

[Профиль]  [ЛС] 

Sunnat1999 ®

Стаж: 4 года 6 месяцев

Сообщений: 756

Симпатии: 416

ДОБАВЛЕНА 19 СЕРИЯ, ПОЖАЛУЙСТА ОБНОВИТЕ ТОРРЕНТ!

Создавать темы 07-Окт-2015 15:44

[Профиль]  [ЛС] 

Sunnat1999 ®

Стаж: 4 года 6 месяцев

Сообщений: 756

Симпатии: 416

ДОБАВЛЕНА ЗАКЛЮЧИТЕЛЬНАЯ 20 СЕРИЯ, ПОЖАЛУЙСТА ОБНОВИТЕ ТОРРЕНТ!

Создавать темы 08-Окт-2015 18:26

[Профиль]  [ЛС] 

s_veyc

Стаж: 3 года 9 месяцев

Сообщений: 155

Тук тук тук тук..... есть кто на раздаче?!?!?!?!?!?
ТРИ дня назад поставил первые ШЕСТЬ серий, а закачено всего-то 10%
bc

Создавать темы 02-Фев-2016 18:37

[Профиль]  [ЛС] 
Показать сообщения:    
Ответить на тему

Текущее время: 21-Сен 15:39

Часовой пояс: UTC + 5



Вы не можете начинать темы
Вы не можете отвечать на сообщения
Вы не можете редактировать свои сообщения
Вы не можете удалять свои сообщения
Вы не можете голосовать в опросах
Вы не можете прикреплять файлы к сообщениям
Вы не можете скачивать файлы