128 ударов сердца в минуту / We Are Your Friends (Макс Джозеф) [2015, Великобритания, Франция, США, драма, мелодрама, музыка, WEB-DLRip] (Dub)

Ответить на тему
 

Hurracan ®

Стаж: 1 год 11 месяцев

Сообщений: 79

Симпатии: 80

128 ударов сердца в минуту / We Are Your Friends
Страна: Великобритания, Франция, США
Жанр: драма, мелодрама, музыка
Год выпуска: 2015
Продолжительность: 01:30:28
Перевод: Профессиональный (полное дублированное)[Чистый звук]
Cубтитры: нет
Режиссер: Макс Джозеф
В ролях: Зак Эфрон, Уэс Бентли, Эмили Ратаковски, Джонни Уэстон, Шайло Фернандес, Алекс Шеффер, Джон Бернтал, Алисия Коппола, Уайли М. Пикетт, Джон Абрахамс
Описание: Лос-Анджелес, Калифорния — это мир бесконечных возможностей днем и нереальных голливудских вечеринок ночью. Оба этих мира стремится покорить молодой DJ по имени Коул, неустанно работающий над своим пробивным треком, который должен взорвать весь мир. Его замечает и берет под крыло опытный продюсер Джеймс, но все становится крайне запутанным, когда Коул влюбляется в молодую подружку Джеймса. Вскоре перед Коулом встает непростой выбор между любовью, верностью, старыми друзьями и будущим, о котором он так мечтает.
Качество видео: WEB-DLRip
Формат видео: AVI
Видео: 1925 kb/s, 720x400
Аудио: 192 kb/s (2 ch)

MediaInfo

General
Complete name : C:\Users\Hurracan\Downloads\128.UdaP0B.2015.D.WEB-DLRip.avi
Format : AVI
Format/Info : Audio Video Interleave
File size : 1.37 GiB
Duration : 1h 31mn
Overall bit rate : 2 127 Kbps
Writing application : VirtualDubMod 1.5.10.3 | www.virtualdub-fr.org || (build 2550/release)
Writing library : VirtualDubMod build 2550/release
Video
ID : 0
Format : MPEG-4 Visual
Format profile : Advanced [email protected]
Format settings, BVOP : 2
Format settings, QPel : No
Format settings, GMC : No warppoints
Format settings, Matrix : Default (MPEG)
Codec ID : XVID
Codec ID/Hint : XviD
Duration : 1h 31mn
Bit rate : 1 925 Kbps
Width : 720 pixels
Height : 400 pixels
Display aspect ratio : 16:9
Frame rate : 25.000 fps
Color space : YUV
Chroma subsampling : 4:2:0
Bit depth : 8 bits
Scan type : Progressive
Compression mode : Lossy
Bits/(Pixel*Frame) : 0.267
Stream size : 1.24 GiB (91%)
Writing library : XviD 1.2.1 (UTC 2008-12-04)
Audio
ID : 1
Format : AC-3
Format/Info : Audio Coding 3
Mode extension : CM (complete main)
Format settings, Endianness : Big
Codec ID : 2000
Duration : 1h 31mn
Bit rate mode : Constant
Bit rate : 192 Kbps
Channel(s) : 2 channels
Channel positions : Front: L R
Sampling rate : 48.0 KHz
Compression mode : Lossy
Stream size : 126 MiB (9%)
Alignment : Split accross interleaves
Interleave, duration : 40 ms (1.00 video frame)
Interleave, preload duratio : 500 ms

Скриншоты





Последний раз редактировалось: Hurracan (2015-10-04 09:15), всего редактировалось 3 раз(а)

Создавать темы 02-Окт-2015 19:56

[Профиль]  [ЛС] 

victor0778

Стаж: 6 лет 6 месяцев

Сообщений: 1670

Симпатии: 142

Hurracan, в следующий раз закрою такой релиз и указывайте точное качество озвучки

за это

Complete name : C:\Users\Hurracan\Downloads\128.UdaP0B.2015.D.WEB-спам (:.avi

Создавать темы 03-Окт-2015 13:18

[Профиль]  [ЛС] 

Hurracan ®

Стаж: 1 год 11 месяцев

Сообщений: 79

Симпатии: 80

953797Hurracan, в следующий раз закрою такой релиз и указывайте точное качество озвучки

за это

Complete name : C:\Users\Hurracan\Downloads\128.UdaP0B.2015.D.WEB-спам (:.avi
Извини не обратил внимание.

Создавать темы 04-Окт-2015 09:10

[Профиль]  [ЛС] 

napaleon

Стаж: 6 лет 1 месяц

Сообщений: 7

Симпатии: 2

Спс большое

Создавать темы 05-Окт-2015 19:43

[Профиль]  [ЛС] 
Показать сообщения:    
Ответить на тему

Текущее время: 23-Авг 22:35

Часовой пояс: UTC + 5



Вы не можете начинать темы
Вы не можете отвечать на сообщения
Вы не можете редактировать свои сообщения
Вы не можете удалять свои сообщения
Вы не можете голосовать в опросах
Вы не можете прикреплять файлы к сообщениям
Вы не можете скачивать файлы