Парфюмер: История одного убийцы / Perfume: The Story of a Murderer (Том Тыквер / Tom Tykwer) [2006, фэнтези, драма, криминал, BDRip] (Dub : Лицензия)

Ответить на тему
 

f0xis0ne ®

Стаж: 2 года

Сообщений: 7

Симпатии: 4

Парфюмер: История одного убийцы / Perfume: The Story of a Murderer
Год выпуска: 2006
Страна: Германия, Франция, Испания, США
Жанр: фэнтези, драма, криминал
Продолжительность: 02:27:24
Перевод: Профессиональный (полное дублирование)
Cубтитры: нет
Режиссер: Том Тыквер / Tom Tykwer
В ролях: Бен Уишоу, Дастин Хоффман, Алан Рикман, Рейчел Херд-Вуд, Биргит Минихмайр, Шан Томас, Тимоти Дэвис, Дора Романо, Сара Форестье, Дэвид Колдер
Описание: Жестокий, никогда не знавший любви, сирота Жан-Батист Гренуй настоящих успехов достиг лишь на одном поприще — среди парфюмеров ему никогда не было равных. По его духам сходит с ума весь высший свет, не подозревая о том, какой страшной ценой будет получен последний, идеальный аромат.
Качество видео: BDRip
Формат видео: MKV
Видео: 1916x820 23.976fps 746kbps
Аудио: AAC 48000Hz mono 82kbps

Media Info

General
Complete name : Perfume_The_Story_Of_A_Murderer_2006.mkv
Format : MPEG-4
Format profile : Base Media
Codec ID : isom
File size : 878 MiB
Duration : 2h 27mn
Overall bit rate mode : Variable
Overall bit rate : 833 Kbps
Encoded date : UTC 2014-02-26 20:37:54
Tagged date : UTC 2014-02-26 20:37:54
Video
ID : 1
Format : AVC
Format/Info : Advanced Video Codec
Format profile : [email protected]
Format settings, CABAC : Yes
Format settings, ReFrames : 4 frames
Codec ID : avc1
Codec ID/Info : Advanced Video Coding
Duration : 2h 27mn
Bit rate : 780 Kbps
Maximum bit rate : 7 723 Kbps
Width : 1 916 pixels
Height : 820 pixels
Display aspect ratio : 2.35:1
Frame rate mode : Constant
Frame rate : 23.976 fps
Color space : YUV
Chroma subsampling : 4:2:0
Bit depth : 8 bits
Scan type : Progressive
Bits/(Pixel*Frame) : 0.021
Stream size : 787 MiB (90%)
Writing library : x264 core 125
Encoding settings : cabac=1 / ref=3 / deblock=1:0:0 / analyse=0x3:0x113 / me=hex / subme=7 / psy=1 / psy_rd=1.00:0.00 / mixed_ref=1 / me_range=16 / chroma_me=1 / trellis=1 / 8x8dct=1 / cqm=0 / deadzone=21,11 / fast_pskip=1 / chroma_qp_offset=-2 / threads=1 / lookahead_threads=1 / sliced_threads=0 / nr=0 / decimate=1 / interlaced=0 / bluray_compat=0 / constrained_intra=0 / bframes=3 / b_pyramid=2 / b_adapt=1 / b_bias=0 / direct=1 / weightb=1 / open_gop=0 / weightp=2 / keyint=250 / keyint_min=23 / scenecut=40 / intra_refresh=0 / rc_lookahead=40 / rc=abr / mbtree=1 / bitrate=780 / ratetol=1.0 / qcomp=0.60 / qpmin=0 / qpmax=69 / qpstep=4 / ip_ratio=1.40 / aq=1:1.00
Language : English
Tagged date : UTC 2014-02-26 20:38:17
Audio
ID : 2
Format : AAC
Format/Info : Advanced Audio Codec
Format profile : LC
Codec ID : 40
Duration : 2h 27mn
Bit rate mode : Variable
Bit rate : 82.7 Kbps
Maximum bit rate : 122 Kbps
Channel(s) : 1 channel
Channel positions : Front: C
Sampling rate : 48.0 KHz
Compression mode : Lossy
Stream size : 87.1 MiB (10%)
Language : Russian
Encoded date : UTC 2014-02-26 20:38:15
Tagged date : UTC 2014-02-26 20:38:17

Скриншоты




Создавать темы 02-Окт-2015 23:37

[Профиль]  [ЛС] 

victor0778

Стаж: 6 лет 7 месяцев

Сообщений: 1670

Симпатии: 142

f0xis0ne, вы выкладываете кино с ужасным качеством видео и звука, поэтому закрыто

Создавать темы 03-Окт-2015 13:26

[Профиль]  [ЛС] 
Показать сообщения:    
Ответить на тему

Текущее время: 23-Сен 05:14

Часовой пояс: UTC + 5



Вы не можете начинать темы
Вы не можете отвечать на сообщения
Вы не можете редактировать свои сообщения
Вы не можете удалять свои сообщения
Вы не можете голосовать в опросах
Вы не можете прикреплять файлы к сообщениям
Вы не можете скачивать файлы