Хоккей. Финалы ЧМ 2008, 2009 и 2011 U-18. Россия-Канада. Обзор, голы

Ответить на тему
 

beshka666 ®

Стаж: 2 года 1 месяц

Сообщений: 34

Симпатии: 20

Вид спорта: Хоккей
Год выпуска: 2008, 2009, 2011

Продолжительность: 00:34:50
Язык комментария: русский
Описание: Хоккейные баталии принципиальных соперников - Сборных России и Канады. Обзор финальных матчей между этими командами чемпионатов мира 2008-2009 г.г. и молодежных команд U-18 2011 года.
Качество: TVRip
Формат видео: MP4
Video: MPEG4 Video (H264) 1280x720 29.97fps 1724kbps
Audio: AAC 44100Hz stereo 192kbps
MediaInfo
General
Complete name : C:\торренты\хоккей\Россия-Канада\Чемпионат Мира по хоккею 2009. Финал. Россия - Канада.mp4
Format : MPEG-4
Format profile : Base Media / Version 2
Codec ID : mp42
File size : 97.5 MiB
Duration : 7mn 6s
Overall bit rate mode : Variable
Overall bit rate : 1 919 Kbps
Encoded date : UTC 2015-07-12 07:48:08
Tagged date : UTC 2015-07-12 07:48:08
gsst : 0
gstd : 426108
gssd : BADC23A6CMM1443346441808217
gshh : r12---sn-n8v7ln7y.googlevideo.com
Video
ID : 1
Format : AVC
Format/Info : Advanced Video Codec
Format profile : [email protected]
Format settings, CABAC : Yes
Format settings, ReFrames : 1 frame
Codec ID : avc1
Codec ID/Info : Advanced Video Coding
Duration : 7mn 6s
Bit rate : 1 725 Kbps
Maximum bit rate : 3 209 Kbps
Width : 1 280 pixels
Height : 720 pixels
Display aspect ratio : 16:9
Frame rate mode : Constant
Frame rate : 29.970 fps
Color space : YUV
Chroma subsampling : 4:2:0
Bit depth : 8 bits
Scan type : Progressive
Bits/(Pixel*Frame) : 0.062
Stream size : 87.6 MiB (90%)
Tagged date : UTC 2015-07-12 07:48:09
Audio
ID : 2
Format : AAC
Format/Info : Advanced Audio Codec
Format profile : LC
Codec ID : 40
Duration : 7mn 6s
Bit rate mode : Variable
Bit rate : 192 Kbps
Maximum bit rate : 201 Kbps
Channel count : 2 channels
Channel positions : Front: L R
Sampling rate : 44.1 KHz
Compression mode : Lossy
Stream size : 9.75 MiB (10%)
Title : IsoMedia File Produced by Google, 5-11-2011
Encoded date : UTC 2015-07-12 07:48:09
Tagged date : UTC 2015-07-12 07:48:09
Скриншоты:




Последний раз редактировалось: beshka666 (2015-10-03 14:01), всего редактировалось 1 раз

Создавать темы 03-Окт-2015 13:16

[Профиль]  [ЛС] 

victor0778

Стаж: 6 лет 7 месяцев

Сообщений: 1670

Симпатии: 142

beshka666, оформите как пологается

Создавать темы 03-Окт-2015 13:28

[Профиль]  [ЛС] 
Показать сообщения:    
Ответить на тему

Текущее время: 26-Сен 12:30

Часовой пояс: UTC + 5



Вы не можете начинать темы
Вы не можете отвечать на сообщения
Вы не можете редактировать свои сообщения
Вы не можете удалять свои сообщения
Вы не можете голосовать в опросах
Вы не можете прикреплять файлы к сообщениям
Вы не можете скачивать файлы