Хоккей. Финалы ЧМ 2008, 2009 и 2011 U-18. Россия-Канада. Обзор, голы / Hokkey. WC 2008, 2009 and 2011 U-18 Final games. Russia-Canada. Preview, goals, SATRip] (Dub)

Ответить на тему
 

beshka666 ®

Стаж: 2 года

Сообщений: 34

Симпатии: 20

Хоккей. Финалы ЧМ 2008, 2009 и 2011 U-18. Россия-Канада. Обзор, голы / Hokkey. WC 2008, 2009 and 2011 U-18 Final games. Russia-Canada. Preview, goals
Год выпуска: 2008
Жанр: Спорт, Хоккей
Продолжительность: 00:34:50
Описание: Хоккейные баталии принципиальных соперников - Сборных России и Канады. Обзор финальных матчей между этими командами чемпионатов мира 2008-2009 г.г. и молодежных команд U-18 2011 года.
Качество видео: SATRip
Формат видео: MP4
Видео: MPEG4 Video (H264) 1280x720 29.97fps 1724kbps
Аудио: AAC 44100Hz stereo 192kbps

MediaInfo

General
Format : MPEG-4
Format profile : Base Media / Version 2
Codec ID : mp42
Overall bit rate mode : Variable
Overall bit rate : 1 919 Kbps
gsst : 0
gstd : 426108
gssd : BADC23A6CMM1443346441808217
Video
ID : 1
Format : AVC
Format/Info : Advanced Video Codec
Format profile : [email protected]
Format settings, CABAC : Yes
Format settings, ReFrames : 1 frame
Codec ID : avc1
Codec ID/Info : Advanced Video Coding
Bit rate : 1 725 Kbps
Maximum bit rate : 3 209 Kbps
Width : 1 280 pixels
Height : 720 pixels
Display aspect ratio : 16:9
Frame rate mode : Constant
Frame rate : 29.970 fps
Color space : YUV
Chroma subsampling : 4:2:0
Bit depth : 8 bits
Scan type : Progressive
Bits/(Pixel*Frame) : 0.062
Stream size : 87.6 MiB (90%)
Audio
ID : 2
Format : AAC
Format/Info : Advanced Audio Codec
Format profile : LC
Codec ID : 40
Duration : 7mn 6s
Bit rate mode : Variable
Bit rate : 192 Kbps
Maximum bit rate : 201 Kbps
Channel count : 2 channels
Channel positions : Front: L R
Sampling rate : 44.1 KHz
Compression mode : Lossy
Stream size : 9.75 MiB (10%)

Скриншот c названием фильма

Скриншоты



Создавать темы 03-Окт-2015 14:00

[Профиль]  [ЛС] 

nigga22480

Стаж: 7 лет 3 месяца

Сообщений: 211

Симпатии: 13

не тот форум, это футбол!

Создавать темы 03-Окт-2015 15:25

[Профиль]  [ЛС] 

Топик был перенесен из форума Футбол в форум Спорт
Grock

Создавать темы 03-Окт-2015 20:50

 

Astrolog

Стаж: 5 лет 2 месяца

Сообщений: 213

Симпатии: 27

Ай, класс, только вчера, накручивая негодования, смотрел повтор финала ЧМ 2015 - вот что действительно нуждается в обзоре и разборе.))
Побольше такого рода (хоккейных) раздач, beshka666, непременно забираю!

Создавать темы 05-Окт-2015 11:06

[Профиль]  [ЛС] 
Показать сообщения:    
Ответить на тему

Текущее время: 23-Авг 17:03

Часовой пояс: UTC + 5



Вы не можете начинать темы
Вы не можете отвечать на сообщения
Вы не можете редактировать свои сообщения
Вы не можете удалять свои сообщения
Вы не можете голосовать в опросах
Вы не можете прикреплять файлы к сообщениям
Вы не можете скачивать файлы