Сборник клипов Roxette / Collection of videoclips Roxette (неизвестен) [2002 - 2006, Швеция, Поп-рок, Рок, Глэм-рок, DVDRip]

Ответить на тему
 

Myxa ®

Стаж: 2 года 6 месяцев

Сообщений: 4

Симпатии: 1

Сборник клипов Roxette / Collection of videoclips Roxette
Страна: Швеция
Жанр: Поп-рок, Рок, Глэм-рок
Год выпуска: 2002 - 2006
Продолжительность: 02:31:06
Перевод: Отсутствует
Cубтитры: нет
В ролях: Мари Фредрикссон, Пер Гессле
Описание: Roxette (Роксэ́т) — шведская поп-рок-группа, лидерами которой являются Пер Ге́ссле (автор текстов песен и музыки, гитара, вокал, губная гармоника) и Мари́ Фре́дрикссон (вокал, рояль). Как и многие другие шведские музыканты, они исполняют свои песни на английском языке. Само название «Roxette» происходит от названия песни группы Dr. Feelgood.
Доп. информация: - Согласно интервью одного из шведских новостных бюро, в середине 2006 года Гессле посетил Нью-Йорк. Когда в аэропорту работник миграционной службы спросил Гессле о его профессии, тот ответил: "музыкант". Полицейский пожал плечами и ухмыльнулся, "как будто я должен знать обо всех музыкантах в мире. Вы чем-то знамениты?". Тогда Гессле указал на радио на потолке, из которого в тот момент играла песня "Listen To Your Heart" и произнёс: "Я это написал".
- Видеоклип "Crash! Boom! Bang!" снимали в Лондоне. Тамошняя аппаратура в 1993 году была для этого дела настолько современной, что, прилетев в Швецию, на студию EMI не смогли смонтировать клип и частично испортили плёнку. Пришлось лететь обратно в Лондон и доснимать испорченные моменты, а также монтировать видео на EMI UK.
- Когда Roxette выступали в Китае, они были всего лишь второй музыкальной группой в истории из капиталистической страны, выступавшей в Китае с официального разрешения властей. Первой была группа Wham!
- Настоящий цвет волос Мари - каштановый. Когда у Пера Гессле спросили, какое было его первое впечатление о Мари, он ответил: "Женщина с длинными каштановыми волосами, которая орала как ненормальная..." Среди поклонников есть также легенда о том, что Жозефина, дочь Мари, постоянно просит её не красить волосы, но сама фру Фредрикссон уже так к этому привыкла, что не видит себя брюнеткой.
- Когда вышел видеоклип на песню "Joyride", MTV-Европа крутила его в эфире до 12 раз в сутки. Пер Гессле в шутку назвал эту ситуацию "жёсткой промывкой мозгов".
- Песня "Sleeping In My Car" играет по радио в компьютерной игре GTA: Vice City.
Качество видео: DVDRip
Формат видео: AVI
Видео: AVC, 720x576, 4:3, 25 fps, 3000 Kbps
Аудио: AC-3, 48000 Hz, 224 Kbps, Stereo

MediaInfo

General
Complete name : D:\Downloads\Torrent\Roxette\Ballad Hits\01. A Thing About You.avi
Format : AVI
Format/Info : Audio Video Interleave
File size : 87.3 MiB
Duration : 3mn 45s
Overall bit rate : 3 250 Kbps
Video
ID : 0
Format : AVC
Format/Info : Advanced Video Codec
Format profile : [email protected]
Format settings, CABAC : Yes
Format settings, ReFrames : 1 frame
Format settings, GOP : M=1, N=25
Codec ID : X264
Codec ID/Info : XiWave GNU GPL x264 MPEG-4
Duration : 3mn 45s
Bit rate : 3 018 Kbps
Width : 720 pixels
Height : 576 pixels
Display aspect ratio : 4:3
Frame rate : 25.000 fps
Standard : PAL
Color space : YUV
Chroma subsampling : 4:2:0
Bit depth : 8 bits
Scan type : Progressive
Bits/(Pixel*Frame) : 0.291
Stream size : 81.1 MiB (93%)
Audio
ID : 1
Format : AC-3
Format/Info : Audio Coding 3
Mode extension : CM (complete main)
Format settings, Endianness : Big
Codec ID : 2000
Duration : 3mn 45s
Bit rate mode : Constant
Bit rate : 224 Kbps
Channel(s) : 2 channels
Channel positions : Front: L R
Sampling rate : 48.0 KHz
Compression mode : Lossy
Delay relative to video : 24ms
Stream size : 6.02 MiB (7%)
Alignment : Split accross interleaves
Interleave, duration : 72 ms (1.80 video frames)
Interleave, preload duration : 144 ms

Состав сборника

Ballad Hits
01. A Thing About You - 03:45
02. It Must Have Been Love - 04:20
03. Listen To Your Heart - 05:06
04. Fading Like A Flower - 03:48
05. Spending My Time - 04:36
06. Queen Of Rain - 04:51
07. Almost Unreal - 04:05
08. Crash! Boom! Bang! - 04:39
09. Vulnerable - 04:30
10. You Don't Understand Me - 04:26
11. Wish I Could Fly - 04:42
12. Anyone - 04:48
13. Salvation - 04:10
14. Milk And Toast And Honey - 04:15
Pop Hits
15. Opportunity Nox - 03:11
16. The Look - 03:55
17. Dressed For Success - 04:10
18. Dangerous - 03:53
19. Joyride - 04:31
20. The Big L - 04:28
21. Church Of Your Heart - 03:21
22. How Do You Do - 03:13
23. Sleeping In My Car - 03:43
24. Run To You - 03:40
25. June Afternoon - 04:17
26. Stars - 03:58
27. The Centre Of The Heart - 03:30
28. Real Sugar - 03:54
Extras
29. Neverending Love - 03:33
30. Soul Deep - 03:55
31. I Call Your Name - 03:18
32. Chances - 04:05
33. (Do You Get) Excited - 04:19
34. Fingertips '93 - 03:43
35. Fireworks - 03:38
36. She Doesn't Live Here Anymore - 04:06
37. Un Dia Sin Ti - 04:41

Создавать темы 03-Окт-2015 15:15

[Профиль]  [ЛС] 
Показать сообщения:    
Ответить на тему

Текущее время: 23-Сен 12:39

Часовой пояс: UTC + 5



Вы не можете начинать темы
Вы не можете отвечать на сообщения
Вы не можете редактировать свои сообщения
Вы не можете удалять свои сообщения
Вы не можете голосовать в опросах
Вы не можете прикреплять файлы к сообщениям
Вы не можете скачивать файлы