Звездные врата: Ковчег истины / Stargate: The Ark of Truth (Мартин Вуд/Martin Wood, Роберт Купер/Robert C. Cooper) [2008, США, Канада, Фантастика, BDRip] (MVO : Студия "Кравец") (Original Eng)

Ответить на тему
 

chikalex ®

Стаж: 5 лет 6 месяцев

Сообщений: 3

Звездные врата: Ковчег истины / Stargate: The Ark of Truth
Страна: США, Канада
Жанр: Фантастика
Год выпуска: 2008
Продолжительность: 01:41:51
Перевод: Профессиональный (многоголосый закадровый) Доп. инфо о переводе Студия "Кравец"
Cубтитры: нет
Оригинальная аудиодорожка: английский
Режиссер: Мартин Вуд/Martin Wood, Роберт Купер/Robert C. Cooper
В ролях: Бен Браудер, Аманда Таппинг, Кристофер Джадж, Майкл Шенкс, Ричард Дин Андерсон и др.
Описание: Команда SG-1 начинает поиски артефакта, Ковчега истины, способного нанести поражение армии противника. Вскоре герои узнают о существовании суперворот, сквозь которые Орайи хотят отправить на Землю свою армаду для ее полного уничтожения. Артефакт находится в родной галактике Орайев, и SG-1 отправляется в путь, чтобы предвосхитить атаку. Но у комитета по ассигнованиям есть собственные планы, и SG-1 оказываются в далекой галактике меж двух могущественных врагов.
Качество видео: BDRip
Формат видео: MP4
Видео: XVID, 720*400, 16:9, 23.976, 2 154 Kb/s
Аудио: AC-3, 48.0 KHz, 448 Kb/s, 6 ch.
Аудио 2: AC-3, 48.0 KHz, 448 Kb/s, 6 ch.

MediaInfo

General
Complete name : G:\КИНО\Zvezdnye.Vrata.Kovcheg.Istiny.2008.DUAL.BDRip.XviD.AC3.-HQ-VIDEO.avi
Format : AVI
Format/Info : Audio Video Interleave
Format profile : OpenDML
File size : 2.18 GiB
Duration : 1h 41mn
Overall bit rate : 3 068 Kbps
Movie name : Звездные Врата: Ковчег истины / Stargate: The Ark of Truth (2008)
Director : Infernum (Blu-ray Remux 1080)
Writing application : VirtualDubModRus 1.5.10.2 (build 2542/release)
Copyright : HQ-ViDEO (www.hq-video.ru)
Comment : 24.06.2009
Video
ID : 0
Format : MPEG-4 Visual
Format profile : Advanced [email protected]
Format settings, BVOP : 2
Format settings, QPel : No
Format settings, GMC : No warppoints
Format settings, Matrix : Default (MPEG)
Muxing mode : Packed bitstream
Codec ID : XVID
Codec ID/Hint : XviD
Duration : 1h 41mn
Bit rate : 2 154 Kbps
Width : 720 pixels
Height : 400 pixels
Display aspect ratio : 16:9
Original display aspect rat : 16:9
Frame rate : 23.976 fps
Color space : YUV
Chroma subsampling : 4:2:0
Bit depth : 8 bits
Scan type : Progressive
Compression mode : Lossy
Bits/(Pixel*Frame) : 0.312
Stream size : 1.53 GiB (70%)
Writing library : XviD 1.2.1 (UTC 2008-12-04)
Audio #1
ID : 1
Format : AC-3
Format/Info : Audio Coding 3
Mode extension : CM (complete main)
Format settings, Endianness : Big
Codec ID : 2000
Duration : 1h 41mn
Bit rate mode : Constant
Bit rate : 448 Kbps
Channel(s) : 6 channels
Channel positions : Front: L C R, Side: L R, LFE
Sampling rate : 48.0 KHz
Bit depth : 16 bits
Compression mode : Lossy
Stream size : 326 MiB (15%)
Alignment : Split accross interleaves
Interleave, duration : 42 ms (1.00 video frame)
Interleave, preload duratio : 500 ms
Audio #2
ID : 2
Format : AC-3
Format/Info : Audio Coding 3
Mode extension : CM (complete main)
Format settings, Endianness : Big
Codec ID : 2000
Duration : 1h 41mn
Bit rate mode : Constant
Bit rate : 448 Kbps
Channel(s) : 6 channels
Channel positions : Front: L C R, Side: L R, LFE
Sampling rate : 48.0 KHz
Bit depth : 16 bits
Compression mode : Lossy
Stream size : 326 MiB (15%)
Alignment : Split accross interleaves
Interleave, duration : 42 ms (1.00 video frame)
Interleave, preload duratio : 500 ms

Скриншот c названием фильма

Скриншоты



Создавать темы 04-Окт-2015 00:35

[Профиль]  [ЛС] 

victor0778

Стаж: 6 лет 8 месяцев

Сообщений: 1670

Симпатии: 142

chikalex,
Формат видео: MP4 avi
скриншоты и постер сюда http://img.tas-ix.net/

Создавать темы 05-Окт-2015 08:20

[Профиль]  [ЛС] 
Показать сообщения:    
Ответить на тему

Текущее время: 24-Окт 01:57

Часовой пояс: UTC + 5



Вы не можете начинать темы
Вы не можете отвечать на сообщения
Вы не можете редактировать свои сообщения
Вы не можете удалять свои сообщения
Вы не можете голосовать в опросах
Вы не можете прикреплять файлы к сообщениям
Вы не можете скачивать файлы