Лондонград / Сезон: 1 / Серии: 1-28 из 28 (Дмитрий Киселёв, Влад Николаев) [2015, Драма, Комедия, SATRip]

Страницы :  1, 2  След.

Ответить на тему
 

prostok2 ®

Стаж: 4 года 2 месяца

Сообщений: 27

Симпатии: 14

Лондонград. Знай наших | 2015
Год выпуска: 2015
Производство: Россия
Жанр: Драма, Комедия
Продолжительность: ~48 мин
Субтитры: нет
Режиссёр: Дмитрий Киселёв, Влад Николаев
В ролях: Никита Ефремов, Елена Дудина, Ингрид Олеринская, Павел Ильин, Максим Виторган, Григорий Зельцер, Кирилл Дубровицкий, Юлия Силаева, Юлия Юрченко, Стасс Классен, Христина Полуянова, Александр Меркюри
Описание: Авантюрная драма «Лондонград» захватывающий жизненный сериал. В его основу положена работа над возникающими проблемами в Лондоне. Такую миссию на себя взяли Михаил Куликов(Никита Ефремов) и Степан(Павел Ильин). Для того чтобы помочь соотечественникам справляться из разными ситуациями партнеры создали агентство «Londongrad Consulting», в которую парни вложили много вил и труда. Задача перед ними стоит не простая, ведь ребята берут на себя ответственность решать проблемы, которые возникнуть не в самой столице, как мегаполисе, а в самых жутких ее местах. Все знают о существовании «черных районов», подпольных рынков и прочих «интересных» мест. Эти части общества не подчиняются общим законам, у них свои правила, свое, так сказать, виденье мира. И если не знать этих законов можно ой-ой-ой как вляпаться. Наверно, никому такого не пожелаешь, даже злейшему врагу. В этом замечательном сериале наши герои будут попадать в разные ситуации, постоянно будут возникать проблемы, преграды, но они умело должны совсем справиться, ведь сами выбрали такой нелегкий путь. Посмотрим, получится ли у ребят помочь всем желающим, или они забросят это гиблое дело…
Доп. информация:
Сценарист: Михаил Идов, Андрей Рывкин, Елена Ванина, ...
Продюсер: Вячеслав Муругов, Александр Кессель, Георгий Розинов, ...
Композитор:Вадим Некрасов
Качество: SATRip
Формат: MP4
Видео кодек: AVC
Аудио кодек: MP3
Видео: XviD, 720х400, 913 Kbps
Аудио: AAC, 2 ch, 128 Кбит/с

MI

Лондонград 1 серия.mp4
Format : MPEG-4
Format profile : Base Media
Codec ID : isom
File size : 383 MiB
Duration : 51mn 12s
Overall bit rate mode : Variable
Overall bit rate : 1 046 Kbps
Encoded date : UTC 2015-09-14 18:39:18
Tagged date : UTC 2015-09-14 18:39:18
Video #2
ID : 2
Format : AVC
Format/Info : Advanced Video Codec
Format profile : [email protected]
Format settings, CABAC : No
Format settings, ReFrames : 1 frame
Format settings, GOP : M=1, N=24
Codec ID : avc1
Codec ID/Info : Advanced Video Coding
Duration : 51mn 12s
Bit rate mode : Variable
Bit rate : 913 Kbps
Maximum bit rate : 1 350 Kbps
Width : 720 pixels
Height : 400 pixels
Display aspect ratio : 16:9
Original display aspect ratio : 16:9
Frame rate mode : Constant
Frame rate : 30.000 fps
Color space : YUV
Chroma subsampling : 4:2:0
Bit depth : 8 bits
Scan type : Progressive
Bits/(Pixel*Frame) : 0.106
Stream size : 334 MiB (87%)
Audio #1
ID : 1
Format : AAC
Format/Info : Advanced Audio Codec
Format profile : LC
Codec ID : 40
Duration : 51mn 12s
Bit rate mode : Constant
Bit rate : 128 Kbps
Channel(s) : 2 channels
Channel positions : Front: L R
Sampling rate : 44.1 KHz
Compression mode : Lossy
Stream size : 46.9 MiB (12%)

Скриншоты







Последний раз редактировалось: prostok2 (2015-11-16 23:01), всего редактировалось 46 раз(а)

Создавать темы 04-Окт-2015 16:39

[Профиль]  [ЛС] 

prostok2 ®

Стаж: 4 года 2 месяца

Сообщений: 27

Симпатии: 14

Сериал состоит из 28 серий, которые СТС покажет сразу, не дробя на 2 сезона: по 16 и 12 серий соответственно, как планировалось ранее

Создавать темы 11-Окт-2015 02:52

[Профиль]  [ЛС] 

Rolex

Стаж: 5 лет 7 месяцев

Сообщений: 59

Симпатии: 11

954700Сериал состоит из 28 серий, которые СТС покажет сразу, не дробя на 2 сезона: по 16 и 12 серий соответственно, как планировалось ранее
Так ждать дальнейшей раздачи или нет ?

Создавать темы 12-Окт-2015 15:01

[Профиль]  [ЛС] 

prostok2 ®

Стаж: 4 года 2 месяца

Сообщений: 27

Симпатии: 14

Rolex, вот только что добавил серии )))

Создавать темы 12-Окт-2015 16:37

[Профиль]  [ЛС] 

prostok2 ®

Стаж: 4 года 2 месяца

Сообщений: 27

Симпатии: 14

ДОБАВЛЕНА 17-18-19-20 СЕРИи, ПОЖАЛУЙСТА ОБНОВИТЕ ТОРРЕНТ!


Последний раз редактировалось: prostok2 (2015-10-12 16:41), всего редактировалось 2 раз(а)

Создавать темы 12-Окт-2015 16:38

[Профиль]  [ЛС] 

prostok2 ®

Стаж: 4 года 2 месяца

Сообщений: 27

Симпатии: 14

И не забываем Сказать Спасибо ))

Создавать темы 12-Окт-2015 16:40

[Профиль]  [ЛС] 

Rolex

Стаж: 5 лет 7 месяцев

Сообщений: 59

Симпатии: 11

954867И не забываем Сказать Спасибо ))
Огромная благодарочка. Спасибо большое. aa

Создавать темы 15-Окт-2015 03:01

[Профиль]  [ЛС] 

prostok2 ®

Стаж: 4 года 2 месяца

Сообщений: 27

Симпатии: 14

ДОБАВЛЕНА 21-22 СЕРИИ, ПОЖАЛУЙСТА ОБНОВИТЕ ТОРРЕНТ!

Создавать темы 15-Окт-2015 19:21

[Профиль]  [ЛС] 

prostok2 ®

Стаж: 4 года 2 месяца

Сообщений: 27

Симпатии: 14

ДОБАВЛЕНА 23-24-25 СЕРИИ, ПОЖАЛУЙСТА ОБНОВИТЕ ТОРРЕНТ!
И не забываем сказать спасибо )))

Создавать темы 20-Окт-2015 22:47

[Профиль]  [ЛС] 

Rolex

Стаж: 5 лет 7 месяцев

Сообщений: 59

Симпатии: 11

955774ДОБАВЛЕНА 23-24-25 СЕРИИ, ПОЖАЛУЙСТА ОБНОВИТЕ ТОРРЕНТ!
И не забываем сказать спасибо )))
Спасибо большое ar

Создавать темы 21-Окт-2015 05:39

[Профиль]  [ЛС] 

tima_3dmax

Стаж: 5 лет 9 месяцев

Сообщений: 15

Симпатии: 5

а где торрент файл?

Создавать темы 21-Окт-2015 07:57

[Профиль]  [ЛС] 

prostok2 ®

Стаж: 4 года 2 месяца

Сообщений: 27

Симпатии: 14

tima_3dmax, что то не получается закинуть его а как закидываю выходит не зарег торрент (

Создавать темы 21-Окт-2015 08:37

[Профиль]  [ЛС] 

Rolex

Стаж: 5 лет 7 месяцев

Сообщений: 59

Симпатии: 11

Скачать, скачал (видимо успел). Но пиры пустые.

Создавать темы 21-Окт-2015 17:48

[Профиль]  [ЛС] 

prostok2 ®

Стаж: 4 года 2 месяца

Сообщений: 27

Симпатии: 14

ДОБАВЛЕНА 26-27 СЕРИИ, ПОЖАЛУЙСТА ОБНОВИТЕ ТОРРЕНТ!
И не забываем сказать спасибо )))

Создавать темы 22-Окт-2015 08:45

[Профиль]  [ЛС] 

prostok2 ®

Стаж: 4 года 2 месяца

Сообщений: 27

Симпатии: 14

ДОБАВЛЕНА 28 заключительная серия КОНЕЦ СЕЗОНА, ПОЖАЛУЙСТА ОБНОВИТЕ ТОРРЕНТ!
И не забываем сказать спасибо )))

Создавать темы 24-Окт-2015 07:30

[Профиль]  [ЛС] 
Показать сообщения:    
Ответить на тему

Текущее время: 25-Сен 13:02

Часовой пояс: UTC + 5



Вы не можете начинать темы
Вы не можете отвечать на сообщения
Вы не можете редактировать свои сообщения
Вы не можете удалять свои сообщения
Вы не можете голосовать в опросах
Вы не можете прикреплять файлы к сообщениям
Вы не можете скачивать файлы