Артур и месть Урдалака / Arthur and the revenge of Maltazard (Люк Бессон) [2009, Франция, мультфильм, фэнтези, приключения, семейный, BDRip-AVC] (Dub)

Ответить на тему
 

X-MART ®

Стаж: 1 год 11 месяцев

Сообщений: 21

Симпатии: 14

Артур и месть Урдалака / Arthur and the revenge of Maltazard
Страна: Франция
Жанр: мультфильм, фэнтези, приключения, семейный
Год выпуска: 2009
Продолжительность: 01:30
Перевод: Профессиональный (дублированный)
Cубтитры: нет
Режиссер: Люк Бессон
В ролях: Селена Гомес
Фредди Хаймор
Джимми Фэллон
Омар Си
Миа Фэрроу
Снуп Догг
Ферги Дюамель
Логан Миллер
Уилл Ай Эм
Роберт Стэнтон
Описание: Артур в восторге, потому что этой ночью заканчивается десятый лунный цикл, и он, наконец, сможет вернуться в страну минипутов, чтобы воссоединиться с Селенией. В деревне минипуты приготовили в его честь роскошный банкет, а маленькая принцесса облачилась в платье из лепестков роз. Но отец Артура именно в этот долгожданный день объявляет, что их каникулы у бабушки заканчиваются. Они уже собираются уезжать, как вдруг паук кладёт в ладонь Артуру рисунок, на котором написано слово S.O.S. Сомнений нет — Селении угрожает опасность!
Артур, не задумываясь, летит к ней на выручку. Даже если столкнуться с войсками Креба, нового тирана Семи Королевств, спасти Бархлюша, сражаться с крысами, лягушками и волосатыми пауками… Лишь для того, чтобы, попав в деревушку минипутов, узнать, что они вовсе не просили его о помощи! Но кто же мог приготовить такую изобретательную ловушку нашему юному герою?
Качество видео: BDRip-AVC
Формат видео: MKV
Видео: MPEG4 Video (H264) 1280x546 (1283:546) 24fps
Аудио: Dolby AC3 48000Hz 6ch 384 Kbps

MediaInfo

File size : 2.32 GiB
Duration : 1h 33mn
Overall bit rate mode : Variable
Overall bit rate : 3 545 Kbps
Movie name : Rip by NigAndr (NOLIMITS-TEAM.RU)
Encoded date : UTC 2010-10-23 12:13:33
Writing application : mkvmerge v3.0.0 ('Hang up your Hang-Ups') built on Dec 12 2009 15:20:35
Writing library : libebml v0.7.9 + libmatroska v0.8.1
Video
ID : 1
Format : AVC
Format/Info : Advanced Video Codec
Format profile : [email protected]
Format settings, CABAC : Yes
Format settings, ReFrames : 3 frames
Codec ID : V_MPEG4/ISO/AVC
Duration : 1h 33mn
Bit rate mode : Variable
Bit rate : 3 090 Kbps
Nominal bit rate : 3 262 Kbps
Maximum bit rate : 17.5 Mbps
Width : 1 280 pixels
Height : 546 pixels
Display aspect ratio : 2.35:1
Original display aspect ratio : 2.35:1
Frame rate : 24.000 fps
Color space : YUV
Chroma subsampling : 4:2:0
Bit depth : 8 bits
Scan type : Progressive
Bits/(Pixel*Frame) : 0.184
Stream size : 2.02 GiB (87%)
Title : Артур и месть Урдалака.(2009).[NoLimits-Team.ru]
Writing library : x264 core 104 r1713 c276662
Encoding settings : cabac=1 / ref=3 / deblock=1:0:0 / analyse=0x3:0x113 / me=hex / subme=7 / psy=1 / psy_rd=1.00:0.00 / mixed_ref=1 / me_range=16 / chroma_me=1 / trellis=1 / 8x8dct=1 / cqm=0 / deadzone=21,11 / fast_pskip=1 / chroma_qp_offset=-2 / threads=6 / sliced_threads=0 / slices=4 / nr=0 / decimate=1 / interlaced=0 / constrained_intra=0 / bframes=3 / b_pyramid=1 / b_adapt=1 / b_bias=0 / direct=1 / weightb=1 / open_gop=0 / weightp=0 / keyint=24 / keyint_min=1 / scenecut=40 / intra_refresh=0 / rc_lookahead=24 / rc=abr / mbtree=1 / bitrate=3262 / ratetol=1.0 / qcomp=0.60 / qpmin=0 / qpmax=51 / qpstep=4 / vbv_maxrate=17500 / vbv_bufsize=14500 / ip_ratio=1.10 / aq=1:1.00 / nal_hrd=vbr
Language : English
Default : Yes
Forced : No
Audio
ID : 2
Format : AC-3
Format/Info : Audio Coding 3
Mode extension : CM (complete main)
Format settings, Endianness : Big
Codec ID : A_AC3
Duration : 1h 33mn
Bit rate mode : Constant
Bit rate : 384 Kbps
Channel(s) : 6 channels
Channel positions : Front: L C R, Side: L R, LFE
Sampling rate : 48.0 KHz
Bit depth : 16 bits
Compression mode : Lossy
Stream size : 258 MiB (11%)
Title : AC3 5.1ch 384 kbps [Дубляж]
Language : Russian
Default : Yes
Forced : No

Скриншоты

. . .


Последний раз редактировалось: X-MART (2015-10-05 20:18), всего редактировалось 2 раз(а)

Создавать темы 04-Окт-2015 17:51

[Профиль]  [ЛС] 

victor0778

Стаж: 6 лет 6 месяцев

Сообщений: 1670

Симпатии: 142

X-MART, скрины нормально залейте

Создавать темы 05-Окт-2015 08:28

[Профиль]  [ЛС] 

X-MART ®

Стаж: 1 год 11 месяцев

Сообщений: 21

Симпатии: 14

вроде исправил

Создавать темы 05-Окт-2015 21:23

[Профиль]  [ЛС] 

victor0778

Стаж: 6 лет 6 месяцев

Сообщений: 1670

Симпатии: 142

954033вроде исправил
Вы указали 1280x546, а залили 1268x540

Создавать темы 06-Окт-2015 08:30

[Профиль]  [ЛС] 

X-MART ®

Стаж: 1 год 11 месяцев

Сообщений: 21

Симпатии: 14

954069
954033вроде исправил
Вы указали 1280x546, а залили 1268x540
У меня в KMPlayer'е выдает именно такие данные какие я выложил

Media info

D:\ТОРРЕНТ\Мои файлы\Артур и месть Урдалака.(2009).mkv
General
Unique ID : 227740093366022909888354471122196559072 (0xAB552583534E8B7FA8D3B21070A8F4E0)
Complete name : D:\ТОРРЕНТ\Мои файлы\Артур и месть Урдалака.(2009).mkv
Format : Matroska
Format version : Version 2
File size : 2.32 GiB
Duration : 1h 33mn
Overall bit rate mode : Variable
Overall bit rate : 3 545 Kbps
Movie name : Rip by NigAndr (NOLIMITS-TEAM.RU)
Encoded date : UTC 2010-10-23 12:13:33
Writing application : mkvmerge v3.0.0 ('Hang up your Hang-Ups') built on Dec 12 2009 15:20:35
Writing library : libebml v0.7.9 + libmatroska v0.8.1
Video #1
ID : 1
Format : AVC
Format/Info : Advanced Video Codec
Format profile : [email protected]
Format settings, CABAC : Yes
Format settings, ReFrames : 3 frames
Codec ID : V_MPEG4/ISO/AVC
Duration : 1h 33mn
Bit rate mode : Variable
Bit rate : 3 090 Kbps
Nominal bit rate : 3 262 Kbps
Maximum bit rate : 17.5 Mbps
Width : 1 280 pixels
Height : 546 pixels
Display aspect ratio : 2.35:1
Original display aspect ratio : 2.35:1
Frame rate : 24.000 fps
Color space : YUV
Chroma subsampling : 4:2:0
Bit depth : 8 bits
Scan type : Progressive
Bits/(Pixel*Frame) : 0.184
Stream size : 2.02 GiB (87%)
Title : Артур и месть Урдалака.(2009).[NoLimits-Team.ru]
Writing library : x264 core 104 r1713 c276662
Encoding settings : cabac=1 / ref=3 / deblock=1:0:0 / analyse=0x3:0x113 / me=hex / subme=7 / psy=1 / psy_rd=1.00:0.00 / mixed_ref=1 / me_range=16 / chroma_me=1 / trellis=1 / 8x8dct=1 / cqm=0 / deadzone=21,11 / fast_pskip=1 / chroma_qp_offset=-2 / threads=6 / sliced_threads=0 / slices=4 / nr=0 / decimate=1 / interlaced=0 / constrained_intra=0 / bframes=3 / b_pyramid=1 / b_adapt=1 / b_bias=0 / direct=1 / weightb=1 / open_gop=0 / weightp=0 / keyint=24 / keyint_min=1 / scenecut=40 / intra_refresh=0 / rc_lookahead=24 / rc=abr / mbtree=1 / bitrate=3262 / ratetol=1.0 / qcomp=0.60 / qpmin=0 / qpmax=51 / qpstep=4 / vbv_maxrate=17500 / vbv_bufsize=14500 / ip_ratio=1.10 / aq=1:1.00 / nal_hrd=vbr
Language : English
Default : Yes
Forced : No
Audio #2
ID : 2
Format : AC-3
Format/Info : Audio Coding 3
Mode extension : CM (complete main)
Codec ID : A_AC3
Duration : 1h 33mn
Bit rate mode : Constant
Bit rate : 384 Kbps
Channel(s) : 6 channels
Channel positions : Front: L C R, Side: L R, LFE
Sampling rate : 48.0 KHz
Bit depth : 16 bits
Compression mode : Lossy
Stream size : 258 MiB (11%)
Title : AC3 5.1ch 384 kbps [Дубляж]
Language : Russian
Default : Yes
Forced : No

данные с Daum POTPlayer'а'

[Используемые фильтры]
(1) MKV Source
(2) Video Codec/Transform
(3) Enhanced Video Renderer(Custom Present)
(4) Audio Codec/Transform
(5) DirectSound Audio Renderer
[Информация о видео]
Видеокодек: AVC1 - DXVA Decoder(VLD - Slice Short)
Вход:AVC1(24 bits)
Размер на входе: 1280 x 546(2.35:1)
Выход: dxva
Размер на выходе: 1280 x 560(2.35:1)
Частота кадров: 24.00
BitRate: Неизвестно
[Информация о звуке]
Аудиокодек: Dolby AC3(0x2000) - Декодер по умолчанию
Частота дискретизации: 48000 -> 48000 выборок/с.
Скорость потока: 0 -> 16 бит на компонент
Каналы: 6 -> 2 каналов
Bitrate: 0 kbps
aa

Создавать темы 07-Окт-2015 22:06

[Профиль]  [ЛС] 
Показать сообщения:    
Ответить на тему

Текущее время: 23-Авг 20:43

Часовой пояс: UTC + 5



Вы не можете начинать темы
Вы не можете отвечать на сообщения
Вы не можете редактировать свои сообщения
Вы не можете удалять свои сообщения
Вы не можете голосовать в опросах
Вы не можете прикреплять файлы к сообщениям
Вы не можете скачивать файлы