Формула 1. Сезон 2013 г. Гонки (19 этапов из 19 ) (Россия 2, Спорт 1) TVRip

Ответить на тему
 

beshka666 ®

Стаж: 1 год 11 месяцев

Сообщений: 34

Симпатии: 20

-Формула 1. Сезон 2013 г. Гонки (19 этапов из 19) (Россия 2, Спорт 1)- Год выпуска: 2013
Вид спорта: Формула 1
Участники: Пилоты королевских гонок
Продолжительность: 43:30:09
Комментарий: Профессиональный
Язык комментариев: русский
Описание: 19 Этапов из 19 чемпионата мира 2013 года в гонках класса Формула 1
Качество: SATRip
Канал: Спорт 1, Россия 2
Видео: MPEG4 Video (H264) 704x400 25fps 599kbps
Аудио: AAC 48000Hz stereo 96kbps

MediaInfo

Format : MPEG-4
Format profile : Base Media
Codec ID : isom
Overall bit rate mode : Variable
Overall bit rate : 701 Kbps
Encoded date : UTC 2012-01-17 16:56:33
Tagged date : UTC 2012-01-17 16:56:33
Video
ID : 1
Format : AVC
Format/Info : Advanced Video Codec
Format profile : [email protected]
Format settings, CABAC : Yes
Format settings, ReFrames : 1 frame
Codec ID : avc1
Codec ID/Info : Advanced Video Coding
Bit rate : 600 Kbps
Width : 704 pixels
Height : 400 pixels
Display aspect ratio : 16:9
Frame rate mode : Constant
Frame rate : 25.000 fps
Color space : YUV
Chroma subsampling : 4:2:0
Bit depth : 8 bits
Scan type : Progressive
Bits/(Pixel*Frame) : 0.085
Stream size : 615 MiB (85%)
Source stream size : 615 MiB (85%)
Encoded date : UTC 2012-01-17 16:56:33
Tagged date : UTC 2012-01-17 16:56:33
mdhd_Duration : 8604280
Audio
ID : 2
Format : AAC
Format/Info : Advanced Audio Codec
Format profile : LC
Codec ID : 40
Bit rate mode : Variable
Bit rate : 96.0 Kbps
Maximum bit rate : 143 Kbps
Channel count : 2 channels
Channel positions : Front: L R
Sampling rate : 48.0 KHz
Compression mode : Lossy
Stream size : 98.5 MiB (14%)
Source stream size : 98.5 MiB (14%)
Encoded date : UTC 2012-01-17 16:56:35
Tagged date : UTC 2012-01-17 16:56:35
mdhd_Duration : 8604573

Скриншоты








Последний раз редактировалось: beshka666 (2016-04-21 18:49), всего редактировалось 5 раз(а)

Создавать темы 05-Окт-2015 11:57

[Профиль]  [ЛС] 

M.J.

Стаж: 4 года

Сообщений: 25

Симпатии: 8

~~~


Последний раз редактировалось: M.J. (2016-03-07 12:19), всего редактировалось 1 раз

Создавать темы 05-Окт-2015 19:42

[Профиль]  [ЛС] 

beshka666 ®

Стаж: 1 год 11 месяцев

Сообщений: 34

Симпатии: 20

---


Последний раз редактировалось: beshka666 (2016-04-21 19:15), всего редактировалось 1 раз

Создавать темы 07-Окт-2015 07:38

[Профиль]  [ЛС] 

M.J.

Стаж: 4 года

Сообщений: 25

Симпатии: 8

```


Последний раз редактировалось: M.J. (2016-03-07 12:18), всего редактировалось 3 раз(а)

Создавать темы 07-Окт-2015 13:34

[Профиль]  [ЛС] 

beshka666 ®

Стаж: 1 год 11 месяцев

Сообщений: 34

Симпатии: 20

---


Последний раз редактировалось: beshka666 (2016-03-11 12:16), всего редактировалось 1 раз

Создавать темы 08-Окт-2015 09:31

[Профиль]  [ЛС] 

M.J.

Стаж: 4 года

Сообщений: 25

Симпатии: 8

```

Создавать темы 08-Окт-2015 13:31

[Профиль]  [ЛС] 
Показать сообщения:    
Ответить на тему

Текущее время: 19-Авг 18:10

Часовой пояс: UTC + 5



Вы не можете начинать темы
Вы не можете отвечать на сообщения
Вы не можете редактировать свои сообщения
Вы не можете удалять свои сообщения
Вы не можете голосовать в опросах
Вы не можете прикреплять файлы к сообщениям
Вы не можете скачивать файлы