Советские мафии (28 выпусков) [2014 - 2016, Документальный, SATRip]

Ответить на тему
 

Zab ®

Стаж: 6 лет 5 месяцев

Сообщений: 476

Симпатии: 424

Советские мафии- Дата/Год выпуска: 2014 - 2015
Страна: Россия
Жанр: Документальный
Продолжительность: 23 выпуска по 40 мин.-Телеканал: ТВ Центр-Описание: Когда в 1967 году председателем КГБ СССР стал Юрий Андропов, он вместе с креслом приобрёл и врага – министра МВД Николая Щёлокова. Война между ними - за сферы влияния, близость к Брежневу, контроль над мощными финансовыми потоками, за будущее кресло генсека – имела один большой плюс. Она ударила по всей коррупционной системе страны. Советские мафии стали гибнуть одна за другой...-Советские мафии » Следующие выпуски-качество: SATRip
формат: AVI
Видео: XviD, 688x512, 4:3, ~1800kbps, 25fps
Аудио: mp3, 128kbps, 48kHz, 2ch

Список выпусков/Серий

- Банда Монгола
- Бриллиантовое дело
- Война чёрных антикваров
- Волшебники Изумрудного города
- Глухое дело
- Город грехов
- Гроб с петрушкой
- Дело мясников
- Еврейский трикотаж
- Железная Белла
- Золотая лихорадка
- Карты, деньги, кровь
- Козлов отпущения
- Мать всех воров
- Наркобароны застоя
- Оборотни в погонах
- Операция ''Картель''
- Отец грузинской коррупции
- Продать звезду
- Рабы ''белого золота''
- Расстрел Косого
- Рыбное дело
- Светофор Владимира Кантора
- Хлебное место
- Короли сивухи
- Бандитский Ленинград
- Генерал конфет сосисок

MI

Формат                                   : AVI
Формат/Информация                        : Audio Video Interleave
Размер файла                             : 532 Мбайт
Продолжительность                        : 38 м.
Общий поток                              : 1933 Кбит/сек
Программа кодирования                    : VirtualDubMod 1.5.10.3
Библиотека кодирования                   : VirtualDubMod build 2550/release
Видео
Идентификатор                            : 0
Формат                                   : MPEG-4 Visual
Профиль формата                          : Advanced [email protected]
Параметр BVOP формата                    : 2
Параметр QPel формата                    : Нет
Параметр GMC формата                     : Без точки перехода
Параметр матрицы формата                 : Default (MPEG)
Идентификатор кодека                     : XVID
Идентификатор кодека/Подсказка           : XviD
Продолжительность                        : 38 м.
Битрейт                                  : 1795 Кбит/сек
Ширина                                   : 688 пикселей
Высота                                   : 512 пикселей
Соотношение сторон                       : 4:3
Частота кадров                           : 25,000 кадров/сек
Цветовое пространство                    : YUV
Субдискретизация насыщенности            : 4:2:0
Битовая глубина                          : 8 бит
Тип развёртки                            : Прогрессивная
Метод сжатия                             : С потерями
Бит/(Пиксели*Кадры)                      : 0.204
Размер потока                            : 494 Мбайт (93%)
Библиотека кодирования                   : XviD 1.2.1 (UTC 2008-12-04)
Аудио
Идентификатор                            : 1
Формат                                   : MPEG Audio
Версия формата                           : Version 1
Профиль формата                          : Layer 3
Идентификатор кодека                     : 55
Идентификатор кодека/Подсказка           : MP3
Продолжительность                        : 38 м.
Вид битрейта                             : Постоянный
Битрейт                                  : 128 Кбит/сек
Каналы                                   : 2 канала
Частота                                  : 48,0 КГц
Метод сжатия                             : С потерями
Размер потока                            : 35,2 Мбайт (7%)
Выравнивание                             : Соединение по промежуткам
Продолжительность промежутка             : 40  мс. (1,00 видеокадр)
Время предзагрузки промежутка            : 504  мс.
Библиотека кодирования                   : LAME3.99r

Скриншоты



Внимание! Раздача ведётся путём добавления новых серий

Внимание! Раздача ведётся путём добавления новых серий; при каждом добавлении создаётся новый торрент. Чтобы начать докачку новой серии, пользователям необходимо сделать следующее:
(1) остановить скачивание,
(2) удалить старый торрент у себя из клиента (старые серии удалять не надо),
(3) скачать новый торрент и запустить его у себя в клиенте вместо старого, при этом указать клиенту путь в старую папку куда и должно происходить скачивание новых серий.
Ваш клиент при этом должен произвести хеширование (проверку) старой папки (если не производит сам - помогите ему сделать это), и будет докачивать только те серии которых у вас ещё нет. Старые серии при этом не удаляются, а продолжают раздаваться!
Eсли вы уже удалили старые серии, то предотвратить повторную закачку старых серий можно, отжав галочку в соответствующих местах при запуске нового торрента. По возможности, желательно не удалять старые серии как можно дольше чтобы релизёр не столько продолжал раздавать старые серии, а смог сконцентрироваться на новых.


Последний раз редактировалось: Zab (2016-04-03 15:07), всего редактировалось 11 раз(а)

Создавать темы 05-Окт-2015 12:34

[Профиль]  [ЛС] 

Zab ®

Стаж: 6 лет 5 месяцев

Сообщений: 476

Симпатии: 424

добавлен новый выпуск: - Хлебное место

Создавать темы 05-Окт-2015 12:35

[Профиль]  [ЛС] 

Zab ®

Стаж: 6 лет 5 месяцев

Сообщений: 476

Симпатии: 424

Добавлен новый выпуск: - Бизнес орденоносцев

Создавать темы 18-Окт-2015 09:17

[Профиль]  [ЛС] 

snazirov

Стаж: 2 года 7 месяцев

Сообщений: 5

вообще сколько серии?

Создавать темы 23-Окт-2015 08:45

[Профиль]  [ЛС] 

snazirov

Стаж: 2 года 7 месяцев

Сообщений: 5

если есть другие серии добавите быстрее, очень интересно особенно с конкретными факткми

Создавать темы 23-Окт-2015 08:46

[Профиль]  [ЛС] 

basma4

Стаж: 7 лет 9 месяцев

Сообщений: 74

Симпатии: 19

29 октября, чт 14:50
"Короли сивухи"

вышла серия, но пока тут не залили ...
snazirov, выход серий можешь тут смареть >> Советские мафии на канале ТВЦ <<

Создавать темы 12-Ноя-2015 14:55

[Профиль]  [ЛС] 

Zab ®

Стаж: 6 лет 5 месяцев

Сообщений: 476

Симпатии: 424

Добавлен новый выпуск: - Короли сивухи

Создавать темы 16-Дек-2015 19:38

[Профиль]  [ЛС] 

basma4

Стаж: 7 лет 9 месяцев

Сообщений: 74

Симпатии: 19

Zab, новые серии добавишь ?
Бандитский Ленинград
Генерал конфет сосисок

Создавать темы 23-Дек-2015 11:12

[Профиль]  [ЛС] 

Zab ®

Стаж: 6 лет 5 месяцев

Сообщений: 476

Симпатии: 424

Новые выпуски:
Бандитский Ленинград
Генерал конфет сосисок

Создавать темы 26-Дек-2015 13:01

[Профиль]  [ЛС] 

FLV

Стаж: 5 лет 9 месяцев

Сообщений: 49

Симпатии: 3

Спасибо.

Создавать темы 26-Дек-2015 14:02

[Профиль]  [ЛС] 

snazirov

Стаж: 2 года 7 месяцев

Сообщений: 5

спасибо за все!

Создавать темы 26-Дек-2015 19:39

[Профиль]  [ЛС] 

basma4

Стаж: 7 лет 9 месяцев

Сообщений: 74

Симпатии: 19

Zab, прив, продолжать заливать будешь?
а то вышли новые серии "Король Филипп" (04.02.2016) , "Жирный Сочи" (11.02.2016) и "Кровавые скачки" (только будет анонс 16.03.2016)
февралевские залей пжлст. за ранее спс aa

Создавать темы 11-Мар-2016 23:31

[Профиль]  [ЛС] 

Zab ®

Стаж: 6 лет 5 месяцев

Сообщений: 476

Симпатии: 424

969689Zab, прив, продолжать заливать будешь?
а то вышли новые серии "Король Филипп" (04.02.2016) , "Жирный Сочи" (11.02.2016) и "Кровавые скачки" (только будет анонс 16.03.2016)
февралевские залей пжлст. за ранее спс aa
http://www.tas-ix.net/viewtopic.php?t=112955

Создавать темы 03-Апр-2016 15:07

[Профиль]  [ЛС] 
Показать сообщения:    
Ответить на тему

Текущее время: 19-Окт 15:51

Часовой пояс: UTC + 5



Вы не можете начинать темы
Вы не можете отвечать на сообщения
Вы не можете редактировать свои сообщения
Вы не можете удалять свои сообщения
Вы не можете голосовать в опросах
Вы не можете прикреплять файлы к сообщениям
Вы не можете скачивать файлы