Путешествие на край Вселенной / Journey to the Edge of the Universe (Явар Аббас) [2008, Великобритания, США, Документальный, HDRip-AVC] (VO)

Ответить на тему
 

HDavron ®

Стаж: 2 года 4 месяца

Сообщений: 6

Симпатии: 22

Путешествие на край Вселенной / Journey to the Edge of the Universe Страна: Великобритания, США
Жанр: Документальный
Год выпуска: 2008
Продолжительность: 01:30:32
Перевод: Студийный (одноголосый закадровый)
Cубтитры: нет
Режиссер: Явар Аббас
В ролях: Алек Болдуин, Шон Пертуи
Описание: Это путешествие увлекает нас к истокам зарождения жизни, Столпам Мироздания, давая возможность заглянуть далеко за облака космической пыли, туда, где рождаются огромные звезды, даря Вселенной свой свет, а может быть и жизнь…
Качество видео: HDRip-AVC
Формат видео: MP4
Видео: AVC, 1280 x 720, 16:9, 29,970 кадров/сек, 1133 Кбит/сек
Аудио: AAC, 44,1 КГц, 126 Кбит/сек, 2 канала

MediaInfo

Общее
Полное имя : C:\Users\Davron\Downloads\Путешествие На Край Вселенной.mp4
Формат : MPEG-4
Профиль формата : Base Media
Идентификатор кодека : isom
Размер файла : 820 Мбайт
Продолжительность : 1 ч. 30 м.
Общий поток : 1267 Кбит/сек
Программа кодирования : Lavf55.22.100
Видео
Идентификатор : 1
Формат : AVC
Формат/Информация : Advanced Video Codec
Профиль формата : [email protected]
Параметр CABAC формата : Да
Параметр ReFrames формата : 3 кадра
Идентификатор кодека : avc1
Идентификатор кодека/Информация : Advanced Video Coding
Продолжительность : 1 ч. 30 м.
Битрейт : 1133 Кбит/сек
Ширина : 1280 пикселей
Высота : 720 пикселей
Соотношение сторон : 16:9
Режим частоты кадров : Постоянный
Частота кадров : 29,970 кадров/сек
Цветовое пространство : YUV
Субдискретизация насыщенности : 4:2:0
Битовая глубина : 8 бит
Тип развёртки : Прогрессивная
Бит/(Пиксели*Кадры) : 0.041
Размер потока : 733 Мбайт (89%)
Аудио
Идентификатор : 2
Формат : AAC
Формат/Информация : Advanced Audio Codec
Профиль формата : LC
Идентификатор кодека : 40
Продолжительность : 1 ч. 30 м.
Вид битрейта : Постоянный
Битрейт : 126 Кбит/сек
Каналы : 2 канала
Расположение каналов : Front: L R
Частота : 44,1 КГц
Метод сжатия : С потерями
Размер потока : 81,3 Мбайт (10%)

Скриншоты






Создавать темы 05-Окт-2015 17:00

[Профиль]  [ЛС] 
Показать сообщения:    
Ответить на тему

Текущее время: 20-Авг 11:02

Часовой пояс: UTC + 5



Вы не можете начинать темы
Вы не можете отвечать на сообщения
Вы не можете редактировать свои сообщения
Вы не можете удалять свои сообщения
Вы не можете голосовать в опросах
Вы не можете прикреплять файлы к сообщениям
Вы не можете скачивать файлы