Бумажные города / Paper Towns (Джейк Шрейер) [2015, США, драма, мелодрама, детектив, HDTVRip] (Dub)

Ответить на тему
 

Hurracan ®

Стаж: 2 года

Сообщений: 79

Симпатии: 80

Бумажные города / Paper Towns
Страна: США
Жанр: драма, мелодрама, детектив
Год выпуска: 2015
Продолжительность: 01:49:33
Перевод: Профессиональный (дублированный)
Cубтитры: нет
Режиссер: Джейк Шрейер
В ролях: Нат Вулф, Кара Делевинь, Остин Абрамс, Джастис Смит, Холстон Сейдж, Жасмин Сабино, Кара Буоно, Джозиа Серио, Ханна Аллигуд, Мэг Кросби
Описание: Выпускник школы Кью Джейкобсен с детских лет тайно влюблен в свою прекрасную и дерзкую соседку Марго Рот Шпигельманн. Поэтому, когда однажды ночью она приглашает его принять участие в «карательной операции» против ее обидчиков, он соглашается. Но, придя в школу после их ночного приключения, Кью узнает, что Марго исчезла… оставив для него лишь таинственные послания, которые он должен разгадать, чтобы найти девушку.
Качество видео: WEBDLRip
Формат видео: AVI
Видео: Xvid 720x304 23.976fps 1628kbps
Аудио: AC3 48000Hz stereo 128kbps

MediaInfo

General
Complete name : C:\Users\Hurracan\Downloads\8uMaJn1e.G0r0Da.2015.D.WEB-DLRip.avi
Format : AVI
Format/Info : Audio Video Interleave
File size : 1.35 GiB
Duration : 1h 49mn
Overall bit rate : 1 766 Kbps
Movie name : 8uMaJn1e.G0r0Da.2015.D.WEB-DLRip.ELEKTRI4KA.uniongang.tv
Writing application : VirtualDubMod 1.5.10.3 | www.virtualdub-fr.org || (build 2550/release)
Copyright : UNIONGANG&RUSTORENTS
Video
ID : 0
Format : MPEG-4 Visual
Format profile : Advanced [email protected]
Format settings, BVOP : 2
Format settings, QPel : No
Format settings, GMC : No warppoints
Format settings, Matrix : Default (MPEG)
Codec ID : XVID
Codec ID/Hint : XviD
Duration : 1h 49mn
Bit rate : 1 629 Kbps
Width : 720 pixels
Height : 304 pixels
Display aspect ratio : 2.35:1
Frame rate : 23.976 fps
Color space : YUV
Chroma subsampling : 4:2:0
Bit depth : 8 bits
Scan type : Progressive
Compression mode : Lossy
Bits/(Pixel*Frame) : 0.310
Stream size : 1.24 GiB (92%)
Writing library : XviD 1.2.1 (UTC 2008-12-04)
Audio
ID : 1
Format : AC-3
Format/Info : Audio Coding 3
Mode extension : CM (complete main)
Format settings, Endianness : Big
Codec ID : 2000
Duration : 1h 49mn
Bit rate mode : Constant
Bit rate : 128 Kbps
Channel(s) : 2 channels
Channel positions : Front: L R
Sampling rate : 48.0 KHz
Compression mode : Lossy
Stream size : 99.9 MiB (7%)
Alignment : Split accross interleaves
Interleave, duration : 42 ms (1.00 video frame)
Interleave, preload duration : 500 ms

Скриншоты





Последний раз редактировалось: Hurracan (2015-10-06 10:47), всего редактировалось 1 раз

Создавать темы 05-Окт-2015 21:29

[Профиль]  [ЛС] 

UZM

Стаж: 5 лет 4 месяца

Сообщений: 169

Симпатии: 189

Браво! Я чуточку опоздал.

Создавать темы 05-Окт-2015 21:39

[Профиль]  [ЛС] 

Hurracan ®

Стаж: 2 года

Сообщений: 79

Симпатии: 80

Бывает))

Создавать темы 05-Окт-2015 21:57

[Профиль]  [ЛС] 

[email protected]

Стаж: 6 лет 8 месяцев

Сообщений: 138

Симпатии: 10

С соседнего трекера релиз...

Создавать темы 06-Окт-2015 00:44

[Профиль]  [ЛС] 
Показать сообщения:    
Ответить на тему

Текущее время: 18-Окт 21:51

Часовой пояс: UTC + 5



Вы не можете начинать темы
Вы не можете отвечать на сообщения
Вы не можете редактировать свои сообщения
Вы не можете удалять свои сообщения
Вы не можете голосовать в опросах
Вы не можете прикреплять файлы к сообщениям
Вы не можете скачивать файлы