Расселл Питерс: Известный всем / Russell Peters Notorious (Дэвид Хиби) [2013, Юмористическое шоу, WEBRip] без перевода

Ответить на тему
 

khan the great ®

Стаж: 2 года 2 месяца

Сообщений: 6

Расселл Питерс: Известный всем / Russell Peters Notorious
Год выпуска: 2013
Страна: США
Жанр: Юмористическое шоу
Продолжительность: 01:11:25
Перевод: без перевода (на английском)
Режиссер: Дэвид Хиби
В ролях: Расселл Питерс
Описание: Рассел Питерс - один из самых популярных западных комиков нового тысячелетия. Невероятно смешная импровизация, которую просто невозможно перевести на русский язык, юмор, который может быть по-настоящему смешным только в оригинале на английском языке.
Качество: WEBRip
Формат: MPEG - 4
Видео кодек: AVC
Аудио кодек: AAC
Видео: 720x404, 29.97, 1048kbps
Аудио: 48.0 KHz, ACC, 128 Kbps (2 ch)

Скриншоты



Медиа инфо

General
Format : MPEG-4
Format profile : Base Media
Codec ID : isom
File size : 603 MiB
Duration : 1h 11mn
Overall bit rate mode : Variable
Overall bit rate : 1 181 Kbps
Encoded date : UTC 2013-10-14 17:35:01
Tagged date : UTC 2013-10-14 17:35:01
Video #1
ID : 1
Format : AVC
Format/Info : Advanced Video Codec
Format profile : H[email protected]
Format settings, CABAC : Yes
Format settings, ReFrames : 5 frames
Codec ID : avc1
Codec ID/Info : Advanced Video Coding
Duration : 1h 11mn
Bit rate : 1 048 Kbps
Maximum bit rate : 2 911 Kbps
Width : 720 pixels
Height : 404 pixels
Display aspect ratio : 16:9
Frame rate mode : Constant
Frame rate : 29.970 fps
Color space : YUV
Chroma subsampling : 4:2:0
Bit depth : 8 bits
Scan type : Progressive
Bits/(Pixel*Frame) : 0.120
Stream size : 536 MiB (89%)
Writing library : x264 core 138 r2358 9e941d1
Encoded date : UTC 2013-10-14 16:59:07
Tagged date : UTC 2013-10-14 17:35:05
Matrix coefficients : BT.709
Audio #2
ID : 2
Format : AAC
Format/Info : Advanced Audio Codec
Format profile : LC
Codec ID : 40
Duration : 1h 11mn
Bit rate mode : Variable
Bit rate : 128 Kbps
Maximum bit rate : 150 Kbps
Channel count : 2 channels
Channel positions : Front: L R
Sampling rate : 48.0 KHz
Compression mode : Lossy
Delay relative to video : 67ms
Stream size : 65.3 MiB (11%)
Encoded date : UTC 2013-10-14 17:35:04
Tagged date : UTC 2013-10-14 17:35:05


Последний раз редактировалось: khan the great (2015-10-18 12:48), всего редактировалось 9 раз(а)

Создавать темы 06-Окт-2015 10:05

[Профиль]  [ЛС] 

victor0778

Стаж: 6 лет 9 месяцев

Сообщений: 1670

Симпатии: 142

khan the great, https://tas-ix.net/viewtopic.php?t=5534

Создавать темы 09-Окт-2015 08:09

[Профиль]  [ЛС] 

khan the great ®

Стаж: 2 года 2 месяца

Сообщений: 6

А как можно редактировать?


Последний раз редактировалось: khan the great (2015-10-15 01:13), всего редактировалось 1 раз

Создавать темы 13-Окт-2015 01:12

[Профиль]  [ЛС] 

khan the great ®

Стаж: 2 года 2 месяца

Сообщений: 6

Все исправил!

Создавать темы 14-Окт-2015 22:40

[Профиль]  [ЛС] 

victor0778

Стаж: 6 лет 9 месяцев

Сообщений: 1670

Симпатии: 142

955109Все исправил!
скриншоты по размерам залейте

Создавать темы 15-Окт-2015 08:06

[Профиль]  [ЛС] 

khan the great ®

Стаж: 2 года 2 месяца

Сообщений: 6

955137
955109Все исправил!
скриншоты по размерам залейте
Можете дать какой нибудь сайт чтобы залить фотки! А то в инете нет фоток по такому размеру.

Создавать темы 17-Окт-2015 06:32

[Профиль]  [ЛС] 
Показать сообщения:    
Ответить на тему

Текущее время: 20-Ноя 05:28

Часовой пояс: UTC + 5



Вы не можете начинать темы
Вы не можете отвечать на сообщения
Вы не можете редактировать свои сообщения
Вы не можете удалять свои сообщения
Вы не можете голосовать в опросах
Вы не можете прикреплять файлы к сообщениям
Вы не можете скачивать файлы