Это были мы / We Were Here (Мики Такахиро) [2012, Япония, драма, романтика, DVDRip]

Ответить на тему
 

Jasur S ®

Стаж: 4 года 6 месяцев

Сообщений: 110

Симпатии: 111

Это были мы / We Were Here
-

-
Страна: Япония
Жанр: драма, романтика
Год выпуска: 2012
Продолжительность: 02:02:40
Перевод: Субтитры
Cубтитры: русские
Оригинальная аудиодорожка: японский
-
Режиссер: Мики Такахиро
-
В ролях: Мотокария Юика, Такаока Сосукэ, Ёситака Юрико, Хига Манами, Икута Тома
Описание: Фильм по одноименной манге "Это были мы"
Первый год старшей школы. Для девушек это время прихода любви в их жизнь. Первокурсница Нанами Такахаси (Нана) - не исключение. Она попадает в один класс с безумно популярным у девушек Яно Мотохару, в которого, по слухам, влюблены две трети девушек школы. И тут он встречает на вид очень заносчивую девушку. Вспыхнет ли между ними пламя любви? Ведь они такие разные.
-
Качество видео: DVDRip
Формат видео: MKV
Видео: MPEG4 Video (H264) 720x384 23.976fps [Video]
Аудио: Dolby AC3 48000Hz 6ch 384kbps [Audio]
Формат субтитров: softsub ASS
Доп. информация о субтитрах: Advanced SubStation

MediaInfo

General
Unique ID : 231595099019445712958009582866734509732 (0xAE3B97F750D03430ACC7ED0B71DBEEA4)
Complete name : D:\movies\Bokura ga ita\Bokura ga ita.mkv
Format : Matroska
Format version : Version 2
File size : 1.46 GiB
Duration : 2h 2mn
Overall bit rate : 1 706 Kbps
Encoded date : UTC 2012-09-23 17:46:31
Writing application : mkvmerge v5.0.1 ('Es ist Sommer') built on Oct 9 2011 11:55:43
Writing library : libebml v1.2.2 + libmatroska v1.3.0
Video
ID : 1
Format : AVC
Format/Info : Advanced Video Codec
Format profile : [email protected]
Format settings, CABAC : Yes
Format settings, ReFrames : 8 frames
Muxing mode : Header stripping
Codec ID : V_MPEG4/ISO/AVC
Duration : 2h 2mn
Bit rate : 1 321 Kbps
Width : 720 pixels
Height : 384 pixels
Display aspect ratio : 1.85:1
Frame rate mode : Constant
Frame rate : 23.976 fps
Color space : YUV
Chroma subsampling : 4:2:0
Bit depth : 8 bits
Scan type : Progressive
Bits/(Pixel*Frame) : 0.199
Stream size : 1.10 GiB (76%)
Title : Encoded by zdzdz
Writing library : x264 core 125 r2208 d9d2288
Encoding settings : cabac=1 / ref=8 / deblock=1:-1:-1 / analyse=0x3:0x113 / me=umh / subme=10 / psy=1 / psy_rd=1.00:0.00 / mixed_ref=1 / me_range=24 / chroma_me=1 / trellis=2 / 8x8dct=1 / cqm=0 / deadzone=21,11 / fast_pskip=1 / chroma_qp_offset=-2 / threads=3 / lookahead_threads=1 / sliced_threads=0 / nr=0 / decimate=1 / interlaced=0 / bluray_compat=0 / constrained_intra=0 / bframes=4 / b_pyramid=2 / b_adapt=2 / b_bias=1 / direct=3 / weightb=1 / open_gop=0 / weightp=2 / keyint=240 / keyint_min=23 / scenecut=40 / intra_refresh=0 / rc_lookahead=40 / rc=2pass / mbtree=1 / bitrate=1321 / ratetol=1.0 / qcomp=0.60 / qpmin=10 / qpmax=51 / qpstep=4 / cplxblur=20.0 / qblur=0.5 / ip_ratio=1.40 / aq=2:0.80
Language : Japanese
Default : Yes
Forced : No
Audio
ID : 2
Format : AC-3
Format/Info : Audio Coding 3
Mode extension : CM (complete main)
Format settings, Endianness : Big
Muxing mode : Header stripping
Codec ID : A_AC3
Duration : 2h 2mn
Bit rate mode : Constant
Bit rate : 384 Kbps
Channel(s) : 6 channels
Channel positions : Front: L C R, Side: L R, LFE
Sampling rate : 48.0 KHz
Bit depth : 16 bits
Compression mode : Lossy
Stream size : 337 MiB (23%)
Title : AC3
Language : Japanese
Default : Yes
Forced : No
Text
ID : 3
Format : ASS
Codec ID : S_TEXT/ASS
Codec ID/Info : Advanced Sub Station Alpha
Compression mode : Lossless
Default : Yes
Forced : No
Menu
00:00:00.000 : ja:Chapter 01
00:08:11.034 : ja:Chapter 02
00:14:54.169 : ja:Chapter 03
00:19:52.537 : ja:Chapter 04
00:26:32.005 : ja:Chapter 05
00:35:27.673 : ja:Chapter 06
00:45:42.840 : ja:Chapter 07
00:57:15.674 : ja:Chapter 08
01:06:03.342 : ja:Chapter 09
01:13:42.509 : ja:Chapter 10
01:28:08.510 : ja:Chapter 11
01:39:30.011 : ja:Chapter 12
01:47:14.679 : ja:Chapter 13
01:56:57.680 : ja:Chapter 14
02:00:55.514 : ja:Chapter 15

Скриншоты







Последний раз редактировалось: Jasur S (2015-10-06 19:42), всего редактировалось 2 раз(а)

Создавать темы 06-Окт-2015 16:36

[Профиль]  [ЛС] 

Jasur S ®

Стаж: 4 года 6 месяцев

Сообщений: 110

Симпатии: 111

Продолжение фильма ! Всем приятного просмотра :)
https://tas-ix.net/viewtopic.php?t=109699

Создавать темы 06-Окт-2015 16:40

[Профиль]  [ЛС] 

FoxSage

Стаж: 4 года 3 месяца

Сообщений: 197

Симпатии: 19

Аниме было шедевриальное, хоть и экономно нарисовано. Будтоб сам эту любовь пережил. И вконце обидно (с комом в горле) - что у меня в школьные дни такова не было. И конечно прощание со словами "это были мы" Крепко запомнилось.
Типо горесно, что былая подросковая любовь проходит. И можно только вспоминать о прекрасных моментах пережитых вместе с любимым человеком, без всяких ... - только чистая любовь
А вот фильм к сожалению полный отстой. Разочарование. Ничего из выше перечисленного нету.
Бездарный режисер, бездарные актеры, голоса не естественны. - будтоб российский фильм посмотрел.
Я не выдержил и отмотками мотал до конца.
Хоть в аниме и рассказывалось сюжет первого фильма, но второй после первого смотреть охоты никакой небыло!
Если кто хотел бы узнать, что случилось с ними дальше, то не советую это делать, посколькудальше по манге идет полный бред. И поэтому авторы аниме не стали дальше продолжать историю и решили остоновиться только на первом сезоне. -- И правильно поступили
Всем советую посмотреть только аниме.
P.s. релизеру притензий нет,

Создавать темы 25-Окт-2015 23:57

[Профиль]  [ЛС] 

Jasur S ®

Стаж: 4 года 6 месяцев

Сообщений: 110

Симпатии: 111

FoxSage, я конечно не против рецензий, но почему многие оставляют только негативные рецензии? трекер и так держится на добром желании) я был бы рад если бы вы еще оставляли рецензии к тем фильмам которые вам понравились))

Создавать темы 26-Окт-2015 14:54

[Профиль]  [ЛС] 

FoxSage

Стаж: 4 года 3 месяца

Сообщений: 197

Симпатии: 19

Jasur S, люди должны знать правду. )) Поэтому и пишу то что есть на самом деле.
Я бы и к другим фильмам что-нибудь написал-бы, но их еще не посмотрел.
Времени почти нет. А на фильм это были мы - я с трудом выкроил время чтоб посмотреть, потаму, что, когдато, давным-давно я смотрел это аниме, и мне оно понравилось. Но фильм к сожалению полн Г получилось.
Jasur S, не в обиду релизер. Продолжай заливать и радовать нас. Спасибо за ознокомление.

Создавать темы 26-Окт-2015 22:36

[Профиль]  [ЛС] 

Deviling

Стаж: 2 года 5 месяцев

Сообщений: 82

Симпатии: 136

Это тот самый случай, когда люди отдающие больше предпочтение аниме, смотрят потом после них экранизацию...фильмов и дорам...
Jasur S, помнишь когда я недавно выкладывала дораму "Тетрадь смерти", сразу в теме предупредила что любителям аниме вобщем то лучше ни качать...даже если эканизация хорошая, все равно отзывы будут негативные)))

Создавать темы 26-Окт-2015 23:48

[Профиль]  [ЛС] 

Jasur S ®

Стаж: 4 года 6 месяцев

Сообщений: 110

Симпатии: 111

956403Это тот самый случай, когда люди отдающие больше предпочтение аниме, смотрят потом после них экранизацию...фильмов и дорам...
Jasur S, помнишь когда я недавно выкладывала дораму "Тетрадь смерти", сразу в теме предупредила что любителям аниме вобщем то лучше ни качать...даже если эканизация хорошая, все равно отзывы будут негативные)))
помню) но он ответил достойно.

Создавать темы 27-Окт-2015 06:42

[Профиль]  [ЛС] 
Показать сообщения:    
Ответить на тему

Текущее время: 23-Окт 03:43

Часовой пояс: UTC + 5



Вы не можете начинать темы
Вы не можете отвечать на сообщения
Вы не можете редактировать свои сообщения
Вы не можете удалять свои сообщения
Вы не можете голосовать в опросах
Вы не можете прикреплять файлы к сообщениям
Вы не можете скачивать файлы