Тайны Лауры / The Mysteries of Laura / Сезон: 2 / Серии: 1-13 из 16 (МакДжи) [2015, Драма, детектив, HDTVRip] (DVO : Kiitos)

Ответить на тему
 

Sunnat1999 ®

Стаж: 4 года 9 месяцев

Сообщений: 756

Симпатии: 416

Тайны Лауры / The Mysteries of LauraСезон-2 Серии: 1-13 из 16-- Год выпуска: 2015
Страна: США
Жанр: Драма, детектив
Продолжительность: ~00:42:00 серия
Перевод: Любительский двухголосый закадровый [Kiitos]-Режиссёр: МакДжи-В ролях: Дебра Мессинг, Джош Лукас, Лаз Алонсо, Янина Гаванкар, Илана Бекер, Мерли Бермудез, Лайла Элиз, Дэн Финнерти, Шоун Гонсалес-Описание: Лора Даймонд — блестящий детектив из отдела убийств департамента полиции Нью-Йорка. Каждый день ей приходится справляться не только со своей нелегкой работой, но и с сумасшедшей семейной жизнью — у нее двое непослушных мальчиков-близнецов и муж-полицейский, с которым они вот-вот должны развестись.-Доп. информация:
 

-Качество: HDTVRip
Формат: AVI
Видео кодек: XviD
Аудио кодек: MP3
Видео: XviD, 720x400,1361 kb/s
Аудио: MP3, 2 ch, 192 kb/s
-ВНИМАНИЕ! РАЗДАЧА ВЕДЁТСЯ ПУТЁМ ДОБАВЛЕНИЯ НОВЫХ СЕРИЙ!
ДОБАВЛЕНА 13 СЕРИЯ, ОБНОВИТЕ ПОЖАЛУЙСТА ТОРРЕНТ!

Как обновить торрент

Когда раздача ведётся путём добавления новых серий, при каждом добавлении создётся новый торрент. Чтобы начать докачку новой серии, пользователям необходимо сделать следующее:
(1) остановить скачивание,
(2) удалить старый торрент у себя из клиента (старые серии удалять не надо),
(3) скачать новый торрент и запустить его у себя в клиенте вместо старого, при этом указать клиенту путь в старую папку, куда и должно происходить скачивание новых серий.
Ваш клиент при этом должен произвести хеширование (проверку) старой папки (если не производит сам - помогите ему сделать это), и будет докачивать только те серии, которых у вас ещё нет. Старые серии при этом не удаляются, а продолжают раздаваться!
Eсли вы уже удалили старые серии, то предотвратить повторную закачку старых серий можно, отжав галочку в соответсвующих местах при запуске нового торрента. По возможности, желательно не удалять старые серии как можно дольше, чтобы релизёр не столько продолжал раздавать старые серии, а смог сконцентрироваться на новых.

MediaInfo

General
Complete name : \The.Mysteries.of.Laura.s02.Kiitos.tv\TheMysteriesOfLaura.s02.e01.kiitos.tv.avi
Format : AVI
Format/Info : Audio Video Interleave
File size : 501 MiB
Duration : 42mn 59s
Overall bit rate : 1 629 Kbps
Writing application : VirtualDubMod 1.5.10.2 (build 2540/release)
Writing library : VirtualDubMod build 2540/release
Video
ID : 0
Format : MPEG-4 Visual
Format profile : Advanced [email protected]
Format settings, BVOP : 2
Format settings, QPel : No
Format settings, GMC : No warppoints
Format settings, Matrix : Default (MPEG)
Codec ID : XVID
Codec ID/Hint : XviD
Duration : 42mn 59s
Bit rate : 1 428 Kbps
Width : 720 pixels
Height : 400 pixels
Display aspect ratio : 16:9
Frame rate : 23.976 fps
Color space : YUV
Chroma subsampling : 4:2:0
Bit depth : 8 bits
Scan type : Progressive
Compression mode : Lossy
Bits/(Pixel*Frame) : 0.207
Stream size : 439 MiB (88%)
Writing library : XviD 73
Audio
ID : 1
Format : MPEG Audio
Format version : Version 1
Format profile : Layer 3
Mode : Joint stereo
Codec ID : 55
Codec ID/Hint : MP3
Duration : 42mn 59s
Bit rate mode : Constant
Bit rate : 192 Kbps
Channel(s) : 2 channels
Sampling rate : 48.0 KHz
Compression mode : Lossy
Stream size : 59.0 MiB (12%)
Alignment : Aligned on interleaves
Interleave, duration : 42 ms (1.00 video frame)
Interleave, preload duratio : 504 ms
Скриншоты


Последний раз редактировалось: Sunnat1999 (2016-03-01 11:02), всего редактировалось 6 раз(а)

Создавать темы 06-Окт-2015 17:20

[Профиль]  [ЛС] 

Sunnat1999 ®

Стаж: 4 года 9 месяцев

Сообщений: 756

Симпатии: 416

ДОБАВЛЕНА 3 СЕРИЯ, ОБНОВИТЕ ПОЖАЛУЙСТА ТОРРЕНТ!

Создавать темы 09-Окт-2015 15:10

[Профиль]  [ЛС] 

Sunnat1999 ®

Стаж: 4 года 9 месяцев

Сообщений: 756

Симпатии: 416

ДОБАВЛЕНА 4 СЕРИЯ, ОБНОВИТЕ ПОЖАЛУЙСТА ТОРРЕНТ!

Создавать темы 22-Окт-2015 06:36

[Профиль]  [ЛС] 

inkus

Стаж: 7 лет 7 месяцев

Сообщений: 50

Симпатии: 39

а продолжение планируется?

Создавать темы 13-Ноя-2015 18:47

[Профиль]  [ЛС] 

Sunnat1999 ®

Стаж: 4 года 9 месяцев

Сообщений: 756

Симпатии: 416

ДОБАВЛЕНЫ 5-9 СЕРИИ, ОБНОВИТЕ ПОЖАЛУЙСТА ТОРРЕНТ!

Создавать темы 25-Янв-2016 08:26

[Профиль]  [ЛС] 

Sunnat1999 ®

Стаж: 4 года 9 месяцев

Сообщений: 756

Симпатии: 416

ДОБАВЛЕНА 10 СЕРИЯ, ОБНОВИТЕ ПОЖАЛУЙСТА ТОРРЕНТ!

Создавать темы 01-Фев-2016 13:47

[Профиль]  [ЛС] 

Sunnat1999 ®

Стаж: 4 года 9 месяцев

Сообщений: 756

Симпатии: 416

ДОБАВЛЕНА 11 СЕРИЯ, ОБНОВИТЕ ПОЖАЛУЙСТА ТОРРЕНТ!

Создавать темы 11-Фев-2016 08:42

[Профиль]  [ЛС] 

Sunnat1999 ®

Стаж: 4 года 9 месяцев

Сообщений: 756

Симпатии: 416

ДОБАВЛЕНА 12 СЕРИЯ, ОБНОВИТЕ ПОЖАЛУЙСТА ТОРРЕНТ!

Создавать темы 20-Фев-2016 14:59

[Профиль]  [ЛС] 

Sunnat1999 ®

Стаж: 4 года 9 месяцев

Сообщений: 756

Симпатии: 416

ДОБАВЛЕНА 13 СЕРИЯ, ОБНОВИТЕ ПОЖАЛУЙСТА ТОРРЕНТ!

Создавать темы 01-Мар-2016 11:02

[Профиль]  [ЛС] 
Показать сообщения:    
Ответить на тему

Текущее время: 14-Дек 01:32

Часовой пояс: UTC + 5



Вы не можете начинать темы
Вы не можете отвечать на сообщения
Вы не можете редактировать свои сообщения
Вы не можете удалять свои сообщения
Вы не можете голосовать в опросах
Вы не можете прикреплять файлы к сообщениям
Вы не можете скачивать файлы