Кухня / Сезон: 5 / Серии: 1-20 из 20 (Антон Федотов) [2015, комедия, SATRip]

Ответить на тему
 

Sunnat1999 ®

Стаж: 4 года 8 месяцев

Сообщений: 756

Симпатии: 416

Кухня5-сезон, 1-20 серии-- Год выпуска: 2015
Производство: Россия
Жанр: комедия
Продолжительность: ~25 минут серия
Субтитры: нет-Режиссёр: Антон Федотов-В ролях: Дмитрий Назаров, Марк Богатырев, Дмитрий Нагиев, Елена Подкаминская, Марина Могилевская, Ольга Кузьмина, Сергей Лавыгин, Жаныл Асанбекова, Никита Тарасов, Виктор Хориняк, Екатерина Кузнецова, Елена Чернявская, Юлия Такшина, Сергей Епишев, Михаил Тарабукин и другие.-Описание: Будет ли пятый сезон таким же захватывающим? Нам предстоит узнать будут ли Макс и Вика снова вместе? Как будут развиваться отношения Кати и Дениса, решатся ли официантка Настя с барменом Костей завести второго ребенка? Возглавит ли победитель конкурса Оксана Клод Моне, после провала Баринова в конкурсе, и как долго женщина продержится на адской кухне? Сумеет ли отомстить Баринов Нагиеву за свой провал и организовать собственное дело с нуля или они помирятся? Что будет происходить с Федей и Сеней? Увидим ли мы снова Германа и новых персонажей? Об этом и многом другом мы узнаем в пятом сезоне нашего любимого сериала «Кухня».-Доп. информация:
 
-Качество: SATRip
Формат: AVI
Видео кодек: XviD
Аудио кодек: MP3
Видео: XVID, 1600 Кбит/с, 720x400
Аудио: MP3, 2 ch, 128 Кбит/с
-ВНИМАНИЕ! РАЗДАЧА ВЕДЁТСЯ ПУТЁМ ДОБАВЛЕНИЯ НОВЫХ СЕРИЙ!
ДОБАВЛЕНА 20 СЕРИЯ, ПОЖАЛУЙСТА ОБНОВИТЕ ТОРРЕНТ!

Как обновить торрент

Когда раздача ведётся путём добавления новых серий, при каждом добавлении создётся новый торрент. Чтобы начать докачку новой серии, пользователям необходимо сделать следующее:
(1) остановить скачивание,
(2) удалить старый торрент у себя из клиента (старые серии удалять не надо),
(3) скачать новый торрент и запустить его у себя в клиенте вместо старого, при этом указать клиенту путь в старую папку, куда и должно происходить скачивание новых серий.
Ваш клиент при этом должен произвести хеширование (проверку) старой папки (если не производит сам - помогите ему сделать это), и будет докачивать только те серии, которых у вас ещё нет. Старые серии при этом не удаляются, а продолжают раздаваться!
Eсли вы уже удалили старые серии, то предотвратить повторную закачку старых серий можно, отжав галочку в соответсвующих местах при запуске нового торрента. По возможности, желательно не удалять старые серии как можно дольше, чтобы релизёр не столько продолжал раздавать старые серии, а смог сконцентрироваться на новых.

MI

Общее
Полное имя : \Кухня.5\Kuxnja.5.01.avi
Формат : AVI
Формат/Информация : Audio Video Interleave
Размер файла : 386 Мбайт
Продолжительность : 26 м.
Общий поток : 2046 Кбит/сек
Программа кодирования : transcode-1.1.5
Видео
Идентификатор : 0
Формат : MPEG-4 Visual
Профиль формата : Advanced [email protected]
Параметр BVOP формата : 1
Параметр QPel формата : Нет
Параметр GMC формата : Без точки перехода
Параметр матрицы формата : Default (MPEG)
Идентификатор кодека : XVID
Идентификатор кодека/Подсказка : XviD
Продолжительность : 26 м.
Битрейт : 1906 Кбит/сек
Ширина : 720 пикселей
Высота : 400 пикселей
Соотношение сторон : 16:9
Частота кадров : 30,000 кадров/сек
Цветовое пространство : YUV
Субдискретизация насыщенности : 4:2:0
Битовая глубина : 8 бит
Тип развёртки : Прогрессивная
Метод сжатия : С потерями
Бит/(Пиксели*Кадры) : 0.221
Размер потока : 360 Мбайт (93%)
Библиотека кодирования : XviD 65
Аудио
Идентификатор : 1
Формат : MPEG Audio
Версия формата : Version 1
Профиль формата : Layer 3
Режим : Joint stereo
Идентификатор кодека : 55
Идентификатор кодека/Подсказка : MP3
Продолжительность : 26 м.
Вид битрейта : Постоянный
Битрейт : 128 Кбит/сек
Каналы : 2 канала
Частота : 44,1 КГц
Метод сжатия : С потерями
Задержка видео : 23 мс.
Размер потока : 24,2 Мбайт (6%)
Выравнивание : Разделение по промежуткам
Продолжительность промежутка : 33 мс. (1,00 видеокадр)
Время предзагрузки промежутка : 500 мс.
Библиотека кодирования : LAME3.99.5
Скриншоты


Последний раз редактировалось: Sunnat1999 (2015-10-26 08:36), всего редактировалось 2 раз(а)

Создавать темы 06-Окт-2015 18:27

[Профиль]  [ЛС] 

Sunnat1999 ®

Стаж: 4 года 8 месяцев

Сообщений: 756

Симпатии: 416

ДОБАВЛЕНА 20 ЗАКЛЮЧИТЕЛЬНАЯ СЕРИЯ, ПОЖАЛУЙСТА ОБНОВИТЕ ТОРРЕНТ!

Создавать темы 07-Окт-2015 17:51

[Профиль]  [ЛС] 

Rolex

Стаж: 5 лет 9 месяцев

Сообщений: 59

Симпатии: 11

Спасибо большое, за качественное и оперативное сопровождения релиза.

Создавать темы 08-Окт-2015 06:34

[Профиль]  [ЛС] 

express343

Стаж: 4 года 9 месяцев

Сообщений: 6

Скорости пожалуйста.

Создавать темы 24-Дек-2015 21:43

[Профиль]  [ЛС] 

ecliiiipse

Стаж: 4 года 5 месяцев

Сообщений: 22

0 скорость

Создавать темы 07-Мар-2016 19:27

[Профиль]  [ЛС] 

Амир_

Стаж: 3 года 10 месяцев

Сообщений: 16

Дайте скорости пожалуйста.

Создавать темы 03-Апр-2016 18:34

[Профиль]  [ЛС] 
Показать сообщения:    
Ответить на тему

Текущее время: 18-Ноя 03:59

Часовой пояс: UTC + 5



Вы не можете начинать темы
Вы не можете отвечать на сообщения
Вы не можете редактировать свои сообщения
Вы не можете удалять свои сообщения
Вы не можете голосовать в опросах
Вы не можете прикреплять файлы к сообщениям
Вы не можете скачивать файлы