Снежные приключения Солана и Людвига / Solan og Ludvig - Jul i Flåklypa (2013) BDRip 720p

Ответить на тему
 

Cheburashka ®

Стаж: 5 лет 6 месяцев

Сообщений: 54

Симпатии: 41

Снежные приключения Солана и Людвига / Solan og Ludvig - Jul i Flåklypa
Страна:Норвегия
Жанр:мультфильм, семейный
Год выпуска:2013
Продолжительность:01:16:25
Субтитры: английские
Режиссер:Расмус А. Сивертсен / Rasmus A. Sivertsen
Описание:Кари Анн Грёнсунд, Тронд Хёвик, Тронд Бренне, Каре Конради, Джон Брунгот, Торалв Морстад, Андерс Бай, Якоб Офтебро, Эли Анне Линнестад, Эйлиф Хеллум Норакер
Веселый и любопытный Солан и его друг — пессимист и меланхолик Людвиг — живут в маленькой деревушке вместе с изобретателем Реодором Фельгеном. Спокойную жизнь героев омрачает лишь одно — в канун Рождества в деревне до сих пор не выпал снег. Реодор, желая порадовать друзей, создает самую мощную в мире снежную пушку. Но, к сожалению, есть человек, который хочет использовать машину в корыстных целях — это редактор местной газеты Фриман. Чтобы повысить продажи своего издания, Фриман обещает читателям рекордное количество снега — и, конечно, для этого ему понадобится изобретение Реодора. Редактор своими действиями вызывает настоящую снежную бурю, и тогда Солана и Людвиг решают бросить ему вызов, чтобы остановить разбушевавшуюся стихию и вернуть Рождество.
Качество: BDRip 720 p
Формат: AVC (библиотека кодирования x.264)
Контейнер (Расширение): MKV
Видео:MPEG4 Video (H264) 1280x720 24fps 3 518 Kbps
Аудио:Dolby AC3 48000Hz stereo 192 Kbps

MI

General
Unique ID : 226417877879254418358560485319593214813 (0xAA567F41A1FE48D0B1B6E28CE544C35D)
Complete name : G:\Мультфильмы\Solan og Ludvig.2013.720p.x264 .mkv
Format : Matroska
Format version : Version 2
File size : 2.02 GiB
Duration : 1h 16mn
Overall bit rate : 3 785 Kbps
Encoded date : UTC 2015-10-06 05:56:19
Writing application : mkvmerge v5.4.0 ('Piper') built on Mar 10 2012 13:34:39
Writing library : libebml v1.2.3 + libmatroska v1.3.0
Video
ID : 1
Format : AVC
Format/Info : Advanced Video Codec
Format profile : [email protected]
Format settings, CABAC : Yes
Format settings, ReFrames : 9 frames
Muxing mode : Header stripping
Codec ID : V_MPEG4/ISO/AVC
Duration : 1h 16mn
Bit rate : 3 518 Kbps
Width : 1 280 pixels
Height : 720 pixels
Display aspect ratio : 16:9
Frame rate mode : Constant
Frame rate : 24.000 fps
Color space : YUV
Chroma subsampling : 4:2:0
Bit depth : 8 bits
Scan type : Progressive
Bits/(Pixel*Frame) : 0.159
Stream size : 1.88 GiB (93%)
Writing library : x264 core 125 r2208 d9d2288
Encoding settings : cabac=1 / ref=9 / deblock=1:-3:-3 / analyse=0x3:0x133 / me=umh / subme=11 / psy=1 / psy_rd=1.00:0.00 / mixed_ref=1 / me_range=32 / chroma_me=1 / trellis=2 / 8x8dct=1 / cqm=0 / deadzone=21,11 / fast_pskip=0 / chroma_qp_offset=-2 / threads=12 / lookahead_threads=2 / sliced_threads=0 / nr=0 / decimate=1 / interlaced=0 / bluray_compat=0 / constrained_intra=0 / bframes=8 / b_pyramid=2 / b_adapt=2 / b_bias=0 / direct=1 / weightb=1 / open_gop=0 / weightp=2 / keyint=250 / keyint_min=24 / scenecut=40 / intra_refresh=0 / rc=crf / mbtree=0 / crf=18.0 / qcomp=0.60 / qpmin=0 / qpmax=69 / qpstep=4 / ip_ratio=1.10 / pb_ratio=1.10 / aq=1:1.00
Language : English
Default : Yes
Forced : No
Audio
ID : 2
Format : AC-3
Format/Info : Audio Coding 3
Mode extension : CM (complete main)
Format settings, Endianness : Big
Muxing mode : Header stripping
Codec ID : A_AC3
Duration : 1h 16mn
Bit rate mode : Constant
Bit rate : 192 Kbps
Channel(s) : 2 channels
Channel positions : Front: L R
Sampling rate : 48.0 KHz
Bit depth : 16 bits
Compression mode : Lossy
Stream size : 105 MiB (5%)
Language : Russian
Default : Yes
Forced : Yes
Text
ID : 3
Format : UTF-8
Codec ID : S_TEXT/UTF8
Codec ID/Info : UTF-8 Plain Text
Language : English
Default : No
Forced : No
Menu
00:00:00.000 : no:00:00:00.000
00:05:20.791 : no:00:05:20.791
00:12:33.833 : no:00:12:33.833
00:20:17.958 : no:00:20:17.958
00:28:15.375 : no:00:28:15.375
00:35:48.125 : no:00:35:48.125
00:42:45.250 : no:00:42:45.250
00:50:18.791 : no:00:50:18.791
00:57:12.166 : no:00:57:12.166
01:01:31.208 : no:01:01:31.208
01:09:05.833 : no:01:09:05.833
01:13:01.375 : no:01:13:01.375

Скриншоты








Последний раз редактировалось: Cheburashka (2015-10-06 20:44), всего редактировалось 1 раз

Создавать темы 06-Окт-2015 20:30

[Профиль]  [ЛС] 

Топик был перенесен из форума Мультфильмы в форум HD-AVC
Cheburashka

Создавать темы 06-Окт-2015 21:14

 
Показать сообщения:    
Ответить на тему

Текущее время: 24-Авг 06:18

Часовой пояс: UTC + 5



Вы не можете начинать темы
Вы не можете отвечать на сообщения
Вы не можете редактировать свои сообщения
Вы не можете удалять свои сообщения
Вы не можете голосовать в опросах
Вы не можете прикреплять файлы к сообщениям
Вы не можете скачивать файлы