Школа Монстров: Призрачно / Monster High.Haunted. (Дэн Фрага, Уильям Лау, Сильвен Блэ) [2015 г., Мультфильм, полнометражный, комедия, приключения,HDRip-AVC | Лицензия]

Ответить на тему
 

Ravilya ®

Стаж: 2 года 5 месяцев

Сообщений: 22

Симпатии: 33

Школа Монстров: Призрачно / Monster High: Haunted - -Страна : США-Год выпуска : 2015-Жанр : Мультфильм, полнометражный, комедия, приключения
Продолжительность : 01:15:43-Режиссер : Дэн Фрага, Уильям Лау, Сильвен Блэ
В ролях : Лора Бэйли, Кэм Кларк, Деби Дерриберри, Эрин Фицджералд, Jonquil Goode, Маркус Гриффин, Тодд Хаберкорн, Кейт Хиггинс, Джой Лернер, Джоуси Монтана МакКой-Перевод : Дублированный (Лицензия)-Субтитры: Английские-Описание : Страшно представить, какие захватывающие приключения ждут девочек из Школы монстров в стенах таинственной Школы призраков! Монстряшки под предводительством Спектры Вондергейст случайно попадают в параллельный Мир Духов и их особую школу, которой руководит строгая Директор-Призрак. Она удерживает Спектру среди призраков, не позволяя ей вернуться домой. Пришло время ужасно прекрасным подружкам бросить вызов духам, чтобы спасти одну из них от полного исчезновения!-Качество : HDRip-AVC
Видео : MPEG-4 AVC, 2265 Кбит/с, 1024x576
Аудио #1 : Russian: Dolby AC3 48000Hz 6ch 448kbps
Аудио #2 : English: Dolby AC3 48000Hz 6ch 384kbps- -

MI

General
Unique ID : 246543107899213886922403748653270861253 (0xB97A79B45FBEF063A4D9113499A885C5)
Complete name : C:Monster.High.Haunted.2015.D.HDRip.mkv
Format : Matroska
Format version : Version 4 / Version 2
File size : 1.64 GiB
Duration : 1h 15mn
Overall bit rate : 3 099 Kbps
Movie name : Monster High Haunted 2015 from ExKinoRay
Encoded date : UTC 2015-03-19 12:10:10
Writing application : mkvmerge v6.6.0 ('The Edge Of The In Between') built on Dec 1 2013 17:55:00
Writing library : libebml v1.3.0 + libmatroska v1.4.1
Video
ID : 1
Format : AVC
Format/Info : Advanced Video Codec
Format profile : [email protected]
Format settings, CABAC : Yes
Format settings, ReFrames : 10 frames
Codec ID : V_MPEG4/ISO/AVC
Duration : 1h 15mn
Bit rate : 2 265 Kbps
Width : 1 024 pixels
Height : 576 pixels
Display aspect ratio : 16:9
Frame rate mode : Constant
Frame rate : 23.976 fps
Color space : YUV
Chroma subsampling : 4:2:0
Bit depth : 8 bits
Scan type : Progressive
Bits/(Pixel*Frame) : 0.160
Stream size : 1.17 GiB (71%)
Title : Enigma
Writing library : x264 core 133 r2334 a3ac64b
Encoding settings : cabac=1 / ref=10 / deblock=1:-1:-2 / analyse=0x3:0x113 / me=umh / subme=10 / psy=1 / psy_rd=1.00:0.15 / mixed_ref=1 / me_range=32 / chroma_me=1 / trellis=2 / 8x8dct=1 / cqm=0 / deadzone=21,11 / fast_pskip=0 / chroma_qp_offset=-3 / threads=12 / lookahead_threads=2 / sliced_threads=0 / nr=0 / decimate=0 / interlaced=0 / bluray_compat=0 / constrained_intra=0 / bframes=8 / b_pyramid=2 / b_adapt=2 / b_bias=0 / direct=3 / weightb=1 / open_gop=0 / weightp=2 / keyint=240 / keyint_min=23 / scenecut=40 / intra_refresh=0 / rc=2pass / mbtree=0 / bitrate=2265 / ratetol=1.0 / qcomp=0.60 / qpmin=0 / qpmax=51 / qpstep=4 / cplxblur=20.0 / qblur=0.5 / ip_ratio=1.40 / pb_ratio=1.30 / aq=1:1.00
Language : English
Default : Yes
Forced : No
Color primaries : BT.709
Transfer characteristics : BT.709
Matrix coefficients : BT.709
Audio #1
ID : 2
Format : AC-3
Format/Info : Audio Coding 3
Mode extension : CM (complete main)
Format settings, Endianness : Big
Codec ID : A_AC3
Duration : 1h 15mn
Bit rate mode : Constant
Bit rate : 448 Kbps
Channel(s) : 6 channels
Channel positions : Front: L C R, Side: L R, LFE
Sampling rate : 48.0 KHz
Bit depth : 16 bits
Compression mode : Lossy
Stream size : 243 MiB (14%)
Title : DUB
Language : Russian
Default : Yes
Forced : No
Audio #2
ID : 3
Format : AC-3
Format/Info : Audio Coding 3
Mode extension : CM (complete main)
Format settings, Endianness : Big
Codec ID : A_AC3
Duration : 1h 15mn
Bit rate mode : Constant
Bit rate : 384 Kbps
Channel(s) : 6 channels
Channel positions : Front: L C R, Side: L R, LFE
Sampling rate : 48.0 KHz
Bit depth : 16 bits
Compression mode : Lossy
Stream size : 208 MiB (12%)
Language : English
Default : No
Forced : No
Text
ID : 4
Format : UTF-8
Codec ID : S_TEXT/UTF8
Codec ID/Info : UTF-8 Plain Text
Language : English
Default : No
Forced : No
Menu
00:00:00.000 : en:00:00:00.000
00:05:18.109 : en:00:05:18.109
00:10:07.816 : en:00:10:07.816
00:17:07.652 : en:00:17:07.652
00:27:34.069 : en:00:27:34.069
00:32:09.052 : en:00:32:09.052
00:36:41.991 : en:00:36:41.991
00:43:57.093 : en:00:43:57.093
00:53:16.318 : en:00:53:16.318
01:01:15.922 : en:01:01:15.922
01:07:23.957 : en:01:07:23.957
01:13:55.306 : en:01:13:55.306

Скриншоты





Последний раз редактировалось: Ravilya (2015-10-07 08:06), всего редактировалось 1 раз

Создавать темы 06-Окт-2015 22:34

[Профиль]  [ЛС] 

victor0778

Стаж: 6 лет 8 месяцев

Сообщений: 1670

Симпатии: 142

Ravilya, половину оформления переделал

Создавать темы 07-Окт-2015 08:08

[Профиль]  [ЛС] 

Ravilya ®

Стаж: 2 года 5 месяцев

Сообщений: 22

Симпатии: 33

954189Ravilya, половину оформления переделал
Спасибо ah

Создавать темы 07-Окт-2015 09:26

[Профиль]  [ЛС] 
Показать сообщения:    
Ответить на тему

Текущее время: 20-Окт 06:27

Часовой пояс: UTC + 5



Вы не можете начинать темы
Вы не можете отвечать на сообщения
Вы не можете редактировать свои сообщения
Вы не можете удалять свои сообщения
Вы не можете голосовать в опросах
Вы не можете прикреплять файлы к сообщениям
Вы не можете скачивать файлы