Ментовские войны 9 / Сезон: 9 / Серии: 1-16 из 16 (Денис Скворцов) [2015, Детектив, HDTVRip]

Ответить на тему
 

Mamutov ®

Стаж: 4 года 11 месяцев

Сообщений: 255

Симпатии: 144

---Ментовские войны 9--- Год выпуска: 2015
Производство: Россия / Студия Панорама
Жанр: детектив, криминал
Продолжительность: ~ 00:45:00
Режиссёр: Денис Скворцов-В ролях: Александр Устюгов, Дмитрий Быковский-Ромашов, Всеволод Цурило, Мария Иванова (IV), Ольга Павловец, Андрей Родимов, Роберт Студеновский, Дмитрий Мухамадеев, Сергей Евсеев, Андрей Кузнецов, Дмитрий Лебедев (III), Антон Гриценко, Денис Баканов, Михаил Новицкий, Максим Матвеев (II), Сергей Хомченков, Сергей Выборнов, Владимир Маслаков, Ксения Алексеева, Андрей Полищук, Сергей Гарусов, Виктор Янишевский, Стэнли Красовицки, Сергей Стукалов, Мария Фефилова, Антон Успенский, Антон Быстров, Константин Китанин, Рустам Насыров, Андрей Шаповал, Андрей Аладьин, Гавриил Федотов, Герасим Архипов, Елизавета Ковалева, Александр Лисицын, Сергей Лысов, Андрей Карако, Дмитрий Олейник, Никита Барсуков-Описание: В девятом сезоне Роман Шилов возвращается в строй и переводится в Главное Управление МВД по Северу-Западу. Теперь зона его ответственности — весь регион. Отдел Шилова будет заниматься раскрытием резонансных преступлений. С «гражданки» вернётся Джексон, а из патрульно-постовой службы — Паша Арнаутов.
Первое дело отдела Шилова не заставило себя долго ждать — в торговом центре одного из городов Карелии происходит взрыв. Есть жертвы. Шилов подключается к расследованию и выясняет, что причиной трагедии стала борьба двух влиятельных лиц Лесноозерска за должность мэра и контроль над прибыльным предприятием города. Борьба идет не на жизнь, а на смерть. Шилова пытаются пустить по ложному следу, надавить на его руководство, угрожают его семье, но Шилов и его друзья идут до конца. Они задерживают преступника, но это всего лишь исполнитель. Шилов понимает, что прошел только «первый уровень» на подступах к преступной организации, с которой ему еще предстоит столкнуться… В ходе следующего расследования Шилов вновь пересекается со своей случайной знакомой Марианной, о которой он вспоминал все это время. Марианне очень нужна его помощь. Похоже, что в личной жизни Шилова грядут большие перемены.

 -Качество: HDTVRip
Формат: AVI
Видео кодек: XviD
Аудио кодек: AC3
Видео: ~ 720x400 (1.80:1), 25 fps, XviD build 50 ~1520 kbps avg, 0.207 bit/pixel
Аудио: 48 kHz, AC3 Dolby Digital, 2/0 (L,R) ch, ~192.00 kbps avg
-

MI

Complete name               : D:\Vytas\Video\Mentovskie.voyny.9.2015.HDTVRip.Files-x\01.Mentovskie.voyny.9.2015.HDTVRip.Files-x.avi
Format                      : AVI
Format/Info                 : Audio Video Interleave
File size                   : 550 MiB
Duration                    : 44mn 41s
Overall bit rate            : 1 721 Kbps
Writing application         : VirtualDubMod 1.5.10.3 | www.virtualdub-fr.org || (build 2550/release)
Writing library             : VirtualDubMod build 2550/release
Video
ID                          : 0
Format                      : MPEG-4 Visual
Format profile              : Advanced [email protected]
Format settings, BVOP       : 1
Format settings, QPel       : No
Format settings, GMC        : No warppoints
Format settings, Matrix     : Custom
Codec ID                    : XVID
Codec ID/Hint               : XviD
Duration                    : 44mn 41s
Bit rate                    : 1 520 Kbps
Width                       : 720 pixels
Height                      : 400 pixels
Display aspect ratio        : 16:9
Frame rate                  : 25.000 fps
Color space                 : YUV
Chroma subsampling          : 4:2:0
Bit depth                   : 8 bits
Scan type                   : Progressive
Compression mode            : Lossy
Bits/(Pixel*Frame)          : 0.211
Stream size                 : 486 MiB (88%)
Writing library             : XviD 73
Audio
ID                          : 1
Format                      : AC-3
Format/Info                 : Audio Coding 3
Mode extension              : CM (complete main)
Format settings, Endianness : Big
Codec ID                    : 2000
Duration                    : 44mn 41s
Bit rate mode               : Constant
Bit rate                    : 192 Kbps
Channel(s)                  : 2 channels
Channel positions           : Front: L R
Sampling rate               : 48.0 KHz
Compression mode            : Lossy
Stream size                 : 61.4 MiB (11%)
Alignment                   : Split accross interleaves
Interleave, duration        : 40 ms (1.00 video frame)
Interleave, preload duratio : 500 ms

Скриншоты



Внимание! Раздача ведётся путём добавления новых серий

Внимание! Раздача ведётся путём добавления новых серий; при каждом добавлении создаётся новый торрент. Чтобы начать докачку новой серии, пользователям необходимо сделать следующее:
(1) остановить скачивание,
(2) удалить старый торрент у себя из клиента (старые серии удалять не надо),
(3) скачать новый торрент и запустить его у себя в клиенте вместо старого, при этом указать клиенту путь в старую папку куда и должно происходить скачивание новых серий.
Ваш клиент при этом должен произвести хеширование (проверку) старой папки (если не производит сам - помогите ему сделать это), и будет докачивать только те серии которых у вас ещё нет. Старые серии при этом не удаляются, а продолжают раздаваться!
Eсли вы уже удалили старые серии, то предотвратить повторную закачку старых серий можно, отжав галочку в соответствующих местах при запуске нового торрента. По возможности, желательно не удалять старые серии как можно дольше чтобы релизёр не столько продолжал раздавать старые серии, а смог сконцентрироваться на новых


Последний раз редактировалось: Mamutov (2015-10-26 08:37), всего редактировалось 5 раз(а)

Создавать темы 06-Окт-2015 23:53

[Профиль]  [ЛС] 

Mamutov ®

Стаж: 4 года 11 месяцев

Сообщений: 255

Симпатии: 144

все серий перезалиты теперь HDTVRip добавлено новые серий

Создавать темы 09-Окт-2015 08:32

[Профиль]  [ЛС] 

Mamutov ®

Стаж: 4 года 11 месяцев

Сообщений: 255

Симпатии: 144

добавлено 7-8 серия

Создавать темы 11-Окт-2015 00:34

[Профиль]  [ЛС] 

Mamutov ®

Стаж: 4 года 11 месяцев

Сообщений: 255

Симпатии: 144

добавлено 9-10-11-12 серий

Создавать темы 14-Окт-2015 23:51

[Профиль]  [ЛС] 

drnemo

Стаж: 5 лет 11 месяцев

Сообщений: 89

Симпатии: 14

газу поддайте!

Создавать темы 16-Окт-2015 20:35

[Профиль]  [ЛС] 

M_A_K

Стаж: 5 лет 11 месяцев

Сообщений: 100

Симпатии: 15

а когда добавите четыре оставшиеся, уже закончился сериал. Заранее спасибо

Создавать темы 17-Окт-2015 19:09

[Профиль]  [ЛС] 

Mamutov ®

Стаж: 4 года 11 месяцев

Сообщений: 255

Симпатии: 144

добавлено все серии
перезалито 12 серия

Создавать темы 17-Окт-2015 19:42

[Профиль]  [ЛС] 

Scanner

Стаж: 5 лет 2 месяца

Сообщений: 40

Симпатии: 1

5 сидеров и 1 месяц упорного качания никак не закачивается че за батва???? никак не пойму

Создавать темы 02-Фев-2016 07:08

[Профиль]  [ЛС] 

Marsell8414

Стаж: 2 года 7 месяцев

Сообщений: 3

Дайте Скорост плз

Создавать темы 30-Май-2016 11:29

[Профиль]  [ЛС] 

Marsell8414

Стаж: 2 года 7 месяцев

Сообщений: 3

Mamutov, я тоже Мамутов ты сам откуда я из Ангрена

Создавать темы 30-Май-2016 11:35

[Профиль]  [ЛС] 

Lutfulla27

Стаж: 5 лет 11 месяцев

Сообщений: 6

10 сезон вышла

Создавать темы 02-Ноя-2016 18:10

[Профиль]  [ЛС] 
Показать сообщения:    
Ответить на тему

Текущее время: 15-Дек 03:50

Часовой пояс: UTC + 5



Вы не можете начинать темы
Вы не можете отвечать на сообщения
Вы не можете редактировать свои сообщения
Вы не можете удалять свои сообщения
Вы не можете голосовать в опросах
Вы не можете прикреплять файлы к сообщениям
Вы не можете скачивать файлы