Приложение / I-Lived (Франк Халфун / Franck Khalfoun) [2015, США, триллер, детектив, мистика, DVDRip] (MVO : [email protected][email protected])

Ответить на тему
 

UZM ®

Стаж: 5 лет 4 месяца

Сообщений: 169

Симпатии: 189

Приложение / I-Lived
Страна: США
Жанр: триллер, детектив, мистика
Год выпуска: 2015
Продолжительность: 01:36:36
Перевод: Любительский (многоголосый закадровый) Доп. инфо о переводе [email protected]@qwerty
Cубтитры: нет
Режиссер: Франк Халфун / Franck Khalfoun
В ролях: Джереми Уоткинс, Джен Броберг, Шеннон Коллис, Джош Коудери, Ник Д’Авирро, Луис Фернандес-Хиль, Джонатан М. Ховард, Франк Халфун, Кристофер Мена
Описание: Молодой человек Джош ведет в сети свой видеоблог по обзору приложений для смартфонов. Однажды он натыкается на приложение «I-lived», которое выполняет любые желания. Загрузив его себе на смартфон и попробовав как оно работает, у Джоша постепенно стирается грань между воображением и реальностью.
Качество видео: HDRip
Формат видео: AVI
Видео: Xvid 720x400 (927:520) 23.976fps 1461kbps
Аудио: Dolby AC3 48,0Hz 6ch 384kbps

MediaInfo

General
Complete name : I:\Кино\I-Lived.2015.avi
Format : AVI
Format/Info : Audio Video Interleave
File size : 1.25 GiB
Duration : 1h 36mn
Overall bit rate : 1 855 Kbps
Movie name : RARBG.COM - I-Lived.2015.WEB-DL.XviD.AC3-RARBG
Writing application : VirtualDubMod 1.5.10.2 (build 2540/release)
Writing library : VirtualDubMod build 2540/release
Comment : RARBG.COM - I-Lived.2015.WEB-DL.XviD.AC3-RARBG
Video
ID : 0
Format : MPEG-4 Visual
Format profile : [email protected]
Format settings, BVOP : No
Format settings, QPel : No
Format settings, GMC : No warppoints
Format settings, Matrix : Default (H.263)
Codec ID : XVID
Codec ID/Hint : XviD
Duration : 1h 36mn
Bit rate : 1 461 Kbps
Width : 720 pixels
Height : 400 pixels
Display aspect ratio : 16:9
Frame rate : 23.976 fps
Color space : YUV
Chroma subsampling : 4:2:0
Bit depth : 8 bits
Scan type : Progressive
Compression mode : Lossy
Bits/(Pixel*Frame) : 0.212
Stream size : 1 010 MiB (79%)
Writing library : Lavc56.20.100
Audio
ID : 1
Format : AC-3
Format/Info : Audio Coding 3
Mode extension : CM (complete main)
Format settings, Endianness : Big
Codec ID : 2000
Duration : 1h 36mn
Bit rate mode : Constant
Bit rate : 384 Kbps
Channel(s) : 6 channels
Channel positions : Front: L C R, Side: L R, LFE
Sampling rate : 48.0 KHz
Compression mode : Lossy
Stream size : 265 MiB (21%)
Alignment : Split accross interleaves
Interleave, duration : 42 ms (1.00 video frame)
Interleave, preload duration : 500 ms
Title : Русская[email protected]@qwerty

Скриншот c названием фильма

Скриншоты

,
,
,

Создавать темы 07-Окт-2015 22:30

[Профиль]  [ЛС] 

yozhik

Стаж: 4 года 4 месяца

Сообщений: 82

Симпатии: 65

помню фильмец Чёртов мобильник

Создавать темы 08-Окт-2015 00:10

[Профиль]  [ЛС] 

SkoroXod

Стаж: 2 года

Сообщений: 99

Симпатии: 78

Интересное кино. Необычный сюжет интригует с самого начала, увлекая зрителя в водоворот событий. Ещё в фильме присутствует хороший поучительный смысл, что просто так ничего не бывает. На мой взгляд, только русская озвучка немножко подкачала.
Оценка: 9 баллов.

Создавать темы 16-Окт-2015 18:56

[Профиль]  [ЛС] 

kiborg911

Стаж: 6 лет 7 месяцев

Сообщений: 58

Симпатии: 3

955278Интересное кино. Необычный сюжет интригует с самого начала, увлекая зрителя в водоворот событий. Ещё в фильме присутствует хороший поучительный смысл, что просто так ничего не бывает. На мой взгляд, только русская озвучка немножко подкачала.
Оценка: 9 баллов.
Щедро Вы уважаемый оценки фильмам ставите,на мой взгляд бывалого кинокритика фильмец больше чем на 4.5 не тянет,это максимум

Создавать темы 20-Окт-2015 22:01

[Профиль]  [ЛС] 

SkoroXod

Стаж: 2 года

Сообщений: 99

Симпатии: 78

955767
955278Интересное кино. Необычный сюжет интригует с самого начала, увлекая зрителя в водоворот событий. Ещё в фильме присутствует хороший поучительный смысл, что просто так ничего не бывает. На мой взгляд, только русская озвучка немножко подкачала.
Оценка: 9 баллов.
Щедро Вы уважаемый оценки фильмам ставите,на мой взгляд бывалого кинокритика фильмец больше чем на 4.5 не тянет,это максимум
    Кому как. Если Вам не понравился фильм, это не значит, что он не понравился и другим. Это моя оценка фильма за современную трактовку продажи дьяволу и гибели человеческой души, с логическим исходом. За отличный поучительный смысл, что бесплатный сыр только в мышеловке, что необходимо всегда читать на что подписываешься, и что не нужно полагать свою жизнь на современные гаджеты. За необычный сюжет, демонстрирующий современную жизнь, опирающуюся на новые компьютерные технологии, в связи с чем размываются понятия реальности и виртуальности у молодого поколения, что хорошо отражено в фильме.
    И если по существу, то пожалуйста, поясните всем, что на Ваш личный взгляд не хватает картине, раз даёте такую низкую оценку фильму.
PS.
Чем комментировать чужой комментарий, лучше бы сами написали критический отзыв или статью об этом фильме.

Создавать темы 20-Окт-2015 22:49

[Профиль]  [ЛС] 

EPMAK

Стаж: 2 года 5 месяцев

Сообщений: 255

Симпатии: 179

Фильм очень понравился смотрел на одном дыхании, с оценкой 9 баллов полностью согласен,автору респект

Создавать темы 23-Окт-2015 12:05

[Профиль]  [ЛС] 
Показать сообщения:    
Ответить на тему

Текущее время: 24-Сен 06:31

Часовой пояс: UTC + 5



Вы не можете начинать темы
Вы не можете отвечать на сообщения
Вы не можете редактировать свои сообщения
Вы не можете удалять свои сообщения
Вы не можете голосовать в опросах
Вы не можете прикреплять файлы к сообщениям
Вы не можете скачивать файлы