Нюхач (2 сезон: 1-8 серия из 8) / Сезон: 2 / Серии: (1-8) из (1-8 серия из 8) (Артем Литвиненко) [2015, Детектив, драма, криминал, WEB-DLRip]

Ответить на тему
 

sotvoldi ®

Стаж: 4 года 6 месяцев

Сообщений: 7

Симпатии: 5

Нюхач (2 сезон: 1-8 серия из 8)
Год выпуска: 2015
Производство: Россия
Жанр: Детектив, драма, криминал
Продолжительность: х ~ 00:45:00
Режиссёр: Артем Литвиненко
В ролях: Кирилл Кяро, Иван Оганесян, Николай Чиндяйкин, Агне Грудите, Мария Аниканова, Нина Гогаева, Павел Кузьмин, Сергей Юшкевич, Игорь Ботвин, Александр Фисенко, Денис Мартынов (II), Алексей Зорин, Станислав Москвин, Вадим Лялько, Владимир Коваль (II), Татьяна Комарова, Елена Сикорская, Александр Зиневич, Сергей Лесков, Олег Ким (IV), Виктор Щур, Артём Червоношеенко, Виталий Копилец, Игорь Дяченко, Александр Мартыщенко
Описание: Каждое преступление имеет свой запах. В новом сезоне захватывающего сериала Нюхач и Виктор Лебедев продолжают служить правосудию. Дар Нюхача и опыт Лебедева делают их тандем сильным и очень эффективным. Но им приходится сталкиваться не только с рядовыми преступниками: за каждым шагом Нюхача и Виктора следит таинственная организация, и им приходится распутывать целую сеть из тайн, загадок и преступлений. Сумеет ли их дружба выдержать все испытания? И смогут ли они победить таинственного врага?
Качество: WEB-DLRip
Формат: AVI
Видео кодек: XviD
Аудио кодек: AC3
Видео: ~ 1800 Кбит/с, 720x400
Аудио: 2 ch, 192 Кбит/с

MI

General
Complete name : I:\Njuhach-2\Nyuhach-1.avi
Format : AVI
Format/Info : Audio Video Interleave
File size : 751 MiB
Duration : 58mn 46s
Overall bit rate : 1 786 Kbps
Writing application : VirtualDubMod 1.5.10.2 (build 2540/release)
Writing library : VirtualDubMod build 2540/release
Video
ID : 0
Format : MPEG-4 Visual
Format profile : Advanced [email protected]
Format settings, BVOP : Yes
Format settings, QPel : No
Format settings, GMC : No warppoints
Format settings, Matrix : Custom
Codec ID : XVID
Codec ID/Hint : XviD
Duration : 58mn 46s
Bit rate : 1 584 Kbps
Width : 720 pixels
Height : 400 pixels
Display aspect ratio : 16:9
Frame rate : 25.000 fps
Color space : YUV
Chroma subsampling : 4:2:0
Bit depth : 8 bits
Scan type : Progressive
Compression mode : Lossy
Bits/(Pixel*Frame) : 0.220
Stream size : 666 MiB (89%)
Writing library : XviD 1.2.1 (UTC 2008-12-04)
Audio
ID : 1
Format : AC-3
Format/Info : Audio Coding 3
Mode extension : CM (complete main)
Format settings, Endianness : Big
Codec ID : 2000
Duration : 58mn 46s
Bit rate mode : Constant
Bit rate : 192 Kbps
Channel(s) : 2 channels
Channel positions : Front: L R
Sampling rate : 48.0 KHz
Bit depth : 16 bits
Compression mode : Lossy
Stream size : 80.7 MiB (11%)
Alignment : Split accross interleaves
Interleave, duration : 40 ms (1.00 video frame)
Interleave, preload duration : 500 ms

Скриншоты

Создавать темы 08-Окт-2015 07:50

[Профиль]  [ЛС] 

kamaell

Стаж: 4 года 5 месяцев

Сообщений: 14

что отдача такая низкая?

Создавать темы 08-Окт-2015 17:02

[Профиль]  [ЛС] 

igor1968

Стаж: 5 лет 6 месяцев

Сообщений: 366

Симпатии: 197

Влился в раздачу.

Создавать темы 10-Окт-2015 20:07

[Профиль]  [ЛС] 

UzVersace

Стаж: 5 лет 7 месяцев

Сообщений: 10

Симпатии: 2

Встаньте на раздачу, пожалуйста.

Создавать темы 06-Ноя-2016 00:58

[Профиль]  [ЛС] 
Показать сообщения:    
Ответить на тему

Текущее время: 23-Сен 09:02

Часовой пояс: UTC + 5



Вы не можете начинать темы
Вы не можете отвечать на сообщения
Вы не можете редактировать свои сообщения
Вы не можете удалять свои сообщения
Вы не можете голосовать в опросах
Вы не можете прикреплять файлы к сообщениям
Вы не можете скачивать файлы