Мисэн: неудавшаяся жизнь / Misaeng [20/20] [2014, Комедия, романтика, повседневность, HDTVRip] [RAW] [360p]

Ответить на тему
 

Jasur S ®

Стаж: 4 года 6 месяцев

Сообщений: 110

Симпатии: 111

Мисэн: неудавшаяся жизнь / Misaeng
-
Год выпуска: 2014
Страна: Южная Корея
Жанр: повседневность, комедия, бизнес, драма
Продолжительность: 20 серий по 70 мин
Перевод: русские субтитры
Канал: tvN-Режиссер: Ким Вон Сок, Ли Юн Чон
-
В ролях: Ли Сон Мин, Кан Со Ра, Ким Дэ Мён, Пён Ё Хан, Им Си Ван, Кан Ха Ныль
Описание: В Южной Корее высшее образование - залог успеха в будущем. Здесь работа на первом месте и каждый стремится достигнуть успеха.
Чан Гы Рэ (Им Си Ван) поставил на кон свою жизнь ради бадука, но не смог стать профессиональным игроком, тем самым оказался за бортом жизни среднестатического корейца. Всё, что ему остаётся делать без высшего образования - это зарабатывать деньги на нескольких подработках. Однажды, благодаря матери, он попадает стажёром в международную компанию и открывает для себя совершенно другой мир. В свои 26 лет Гы Рэ не знает даже как работает копировальная машина. Сможет ли такой человек противостоять стажёрам, которые окончили элитные ВУЗы, знают несколько языков и готовы пойти по головам ради желаемой должности.
Дополнительно:Драма «Мисэн» основана на популярной веб-манхве с таким же названием.
Трансляция с 17.10.2014 по пятницам и субботам в 20:50
Награды
2015 51st Baeksang Arts Awards: Best Director (Kim Won Suk)
2015 51st Baeksang Arts Awards: Top Excellence Actor (Lee Sung Min)
2015 51st Baeksang Arts Awards: New Actor (Im Shi Wan)
Тизер к дорамке - http://mover.uz/watch/nHY1d5i/
OST - https://tas-ix.net/viewtopic.php?t=109592-1-8 серии
Качество: HDTVRip
Формат: AVI
Видео: Xvid 640x352 29.97fps [Video]
Аудио: MP3 48000Hz stereo 128kbps [Audio]
9-20 серии
Качество: HDTVRip
Формат: MP4
Видео: MPEG4 Video (H264) 854x480 (16:9) 25fps 879kbps [Video]
Аудио: AAC 44100Hz stereo 151kbps [Audio]

MediaInfo 1

General
Complete name : D:\dramas\Мисэн неудавшаяся жизнь\Misaeng doramamania Ep01.avi
Format : AVI
Format/Info : Audio Video Interleave
File size : 882 MiB
Duration : 1h 29mn
Overall bit rate : 1 375 Kbps
Writing application : VirtualDubMod 1.5.10.2 (build 2540/release)
Writing library : VirtualDubMod build 2540/release
Video
ID : 0
Format : MPEG-4 Visual
Format profile : Advanced [email protected]
Format settings, BVOP : Yes
Format settings, QPel : No
Format settings, GMC : No warppoints
Format settings, Matrix : Default (H.263)
Codec ID : XVID
Codec ID/Hint : XviD
Duration : 1h 29mn
Bit rate : 1 235 Kbps
Width : 640 pixels
Height : 352 pixels
Display aspect ratio : 16:9
Frame rate : 29.970 fps
Color space : YUV
Chroma subsampling : 4:2:0
Bit depth : 8 bits
Scan type : Progressive
Compression mode : Lossy
Bits/(Pixel*Frame) : 0.183
Stream size : 792 MiB (90%)
Writing library : XviD 58
Audio
ID : 1
Format : MPEG Audio
Format version : Version 1
Format profile : Layer 3
Mode : Joint stereo
Mode extension : MS Stereo
Codec ID : 55
Codec ID/Hint : MP3
Duration : 1h 29mn
Bit rate mode : Constant
Bit rate : 128 Kbps
Channel(s) : 2 channels
Sampling rate : 48.0 KHz
Compression mode : Lossy
Stream size : 82.1 MiB (9%)
Alignment : Aligned on interleaves
Interleave, duration : 33 ms (1.00 video frame)
Interleave, preload duration : 504 ms

MediaInfo 2

General
Complete name : D:\dramas\Мисэн неудавшаяся жизнь\Misaeng Ep09.mp4
Format : MPEG-4
Format profile : Base Media
Codec ID : isom
File size : 517 MiB
Duration : 1h 10mn
Overall bit rate mode : Variable
Overall bit rate : 1 032 Kbps
Writing application : Lavf55.48.100
Video
ID : 1
Format : AVC
Format/Info : Advanced Video Codec
Format profile : [email protected]
Format settings, CABAC : No
Format settings, ReFrames : 3 frames
Codec ID : avc1
Codec ID/Info : Advanced Video Coding
Duration : 1h 10mn
Bit rate : 880 Kbps
Width : 854 pixels
Height : 480 pixels
Display aspect ratio : 16:9
Original display aspect ratio : 16:9
Frame rate mode : Constant
Frame rate : 25.000 fps
Color space : YUV
Chroma subsampling : 4:2:0
Bit depth : 8 bits
Scan type : Progressive
Bits/(Pixel*Frame) : 0.086
Stream size : 441 MiB (85%)
Writing library : x264 core 142
Encoding settings : cabac=0 / ref=3 / deblock=1:0:0 / analyse=0x1:0x111 / me=hex / subme=7 / psy=1 / psy_rd=1.00:0.00 / mixed_ref=1 / me_range=16 / chroma_me=1 / trellis=1 / 8x8dct=0 / cqm=0 / deadzone=21,11 / fast_pskip=1 / chroma_qp_offset=-2 / threads=8 / lookahead_threads=1 / sliced_threads=0 / nr=0 / decimate=1 / interlaced=0 / bluray_compat=0 / constrained_intra=0 / bframes=0 / weightp=0 / keyint=250 / keyint_min=25 / scenecut=40 / intra_refresh=0 / rc_lookahead=40 / rc=2pass / mbtree=1 / bitrate=880 / ratetol=1.0 / qcomp=0.60 / qpmin=0 / qpmax=69 / qpstep=4 / cplxblur=20.0 / qblur=0.5 / ip_ratio=1.40 / aq=1:1.00
Audio
ID : 2
Format : AAC
Format/Info : Advanced Audio Codec
Format profile : LC
Codec ID : 40
Duration : 1h 10mn
Duration_LastFrame : -20ms
Bit rate mode : Variable
Bit rate : 147 Kbps
Maximum bit rate : 160 Kbps
Channel(s) : 2 channels
Channel positions : Front: L R
Sampling rate : 44.1 KHz
Compression mode : Lossy
Stream size : 73.6 MiB (14%)

Скриншоты #1


Скриншоты #2




Последний раз редактировалось: Jasur S (2015-10-24 12:31), всего редактировалось 3 раз(а)

Создавать темы 08-Окт-2015 08:49

[Профиль]  [ЛС] 

Jasur S ®

Стаж: 4 года 6 месяцев

Сообщений: 110

Симпатии: 111

Так как наша любимая фансаб-группа "Мания" забросила проект с 9 серии переводили группа "SubFire"!) Дорама очень реалистичная, настолько приближенная к реальности, что в некоторых героях вы узнаете своих близких, родственников, друзей) На протежении 20 серий ни разу не возникло ощущение того, что на площадке еще съемочный стафф)) Порекомендовал бы всем посмотреть сначала тизер, ведь кто знает у всех разные предпочтения)
Приятного всем просмотра :)

Создавать темы 08-Окт-2015 09:36

[Профиль]  [ЛС] 

Deviling

Стаж: 2 года 5 месяцев

Сообщений: 82

Симпатии: 136

Какая охмуренная дорама и как все таки не заслуженно ее обошли все переводчики, а какие песни в конце каждой серии, в конце пятой серии как услышала музыку, поняла что корейцы все таки любят ну по крайней мере любили слушать наши песни. ведь Коней Высоцкого просто невозможно не узнать, даже если песню поют на корейском языке)))

Создавать темы 17-Окт-2015 01:10

[Профиль]  [ЛС] 

Jasur S ®

Стаж: 4 года 6 месяцев

Сообщений: 110

Симпатии: 111

955325Какая охмуренная дорама и как все таки не заслуженно ее обошли все переводчики, а какие песни в конце каждой серии, в конце пятой серии как услышала музыку, поняла что корейцы все таки любят ну по крайней мере любили слушать наши песни. ведь Коней Высоцкого просто невозможно не узнать, даже если песню поют на корейском языке)))
аааа)) неужто всю ночь смотрела?) даа осты шикарны, собственно поэтому я оформил релиз и к ним) а на счет этого я заметил, что во многих дорамах tvN есть что то связанное с Россией)


Последний раз редактировалось: Jasur S (2015-10-17 14:38), всего редактировалось 1 раз

Создавать темы 17-Окт-2015 14:04

[Профиль]  [ЛС] 

Deviling

Стаж: 2 года 5 месяцев

Сообщений: 82

Симпатии: 136

Огаааааа, всю ночь, тока проснулась, люди уже пообедали, а я только кофе села пить)))
Тоже замечаю частенько))) А тут даже не только Россия а и наш Узбекистан был упомянут, очень радует что люди знают географию и страны ab

Создавать темы 17-Окт-2015 14:21

[Профиль]  [ЛС] 
Показать сообщения:    
Ответить на тему

Текущее время: 22-Окт 18:58

Часовой пояс: UTC + 5



Вы не можете начинать темы
Вы не можете отвечать на сообщения
Вы не можете редактировать свои сообщения
Вы не можете удалять свои сообщения
Вы не можете голосовать в опросах
Вы не можете прикреплять файлы к сообщениям
Вы не можете скачивать файлы