Клуб счастья (Игорь Каленов) [2010, комедия, DVDRip]

Ответить на тему
 

X-MART ®

Стаж: 2 года 2 месяца

Сообщений: 21

Симпатии: 14

Клуб счастья
Год выпуска: 2010
Страна: Россия
Жанр: комедия
Продолжительность: 1ч.31мин.
Перевод: Не требуется
Режиссёр: Игорь Каленов
В ролях: Софья Ская
Алексей Бардуков
Владимир Кристовский
Андрей Носков
Юрий Гальцев
Настя Задорожная
Анна Семенович
Алика Смехова
Сергей Мигицко
Юрий Ицков
Описание: Катя мечтает танцевать в мюзикле и приезжает в Санкт-Петербург, чтобы испытать свою судьбу. Она хочет сама добиться успеха в жизни, но жестокий мир шоу-бизнеса не принимает наивную девушку. По счастливой случайности ей удается устроиться на работу барменом в популярном ночном клубе. Здесь Катю ждут новые знакомства, которые навсегда изменят её жизнь. Она найдет настоящего друга, столкнется с хитрой соперницей, поставит на место зарвавшегося управляющего и встретит романтичного юношу, решившего во что бы то ни стало покорить ее сердце.
Качество видео: DVDRip
Формат видео: AVI
Видео кодек: Xvid
Аудио кодек: AC3
Видео: 720x304; 25fps;1677 Kbps
Аудио: AC3 48000Hz 6ch 448kbps

MediaInfo

General
Complete name : D:\ТОРРЕНТ\Мои файлы\Klub.shastja.2010.DVDRip.avi
Format : AVI
Format/Info : Audio Video Interleave
File size : 1.37 GiB
Duration : 1h 31mn
Overall bit rate : 2 135 Kbps
Writing application : VirtualDubMod 1.5.4.1 (build 2178/release)
Writing library : VirtualDubMod build 2178/release
Video #0
ID : 0
Format : MPEG-4 Visual
Format profile : Advanced [email protected]
Format settings, BVOP : 2
Format settings, QPel : No
Format settings, GMC : No warppoints
Format settings, Matrix : Custom
Codec ID : XVID
Codec ID/Hint : XviD
Duration : 1h 31mn
Bit rate : 1 677 Kbps
Width : 720 pixels
Height : 304 pixels
Display aspect ratio : 2.35:1
Frame rate : 25.000 fps
Color space : YUV
Chroma subsampling : 4:2:0
Bit depth : 8 bits
Scan type : Progressive
Compression mode : Lossy
Bits/(Pixel*Frame) : 0.307
Stream size : 1.07 GiB (79%)
Writing library : XviD 58
Audio #1
ID : 1
Format : AC-3
Format/Info : Audio Coding 3
Mode extension : CM (complete main)
Format settings, Endianness : Big
Codec ID : 2000
Duration : 1h 31mn
Bit rate mode : Constant
Bit rate : 448 Kbps
Channel(s) : 6 channels
Channel positions : Front: L C R, Side: L R, LFE
Sampling rate : 48.0 KHz
Bit depth : 16 bits
Compression mode : Lossy
Stream size : 294 MiB (21%)
Alignment : Split accross interleaves
Interleave, duration : 40 ms (1.00 video frame)
Interleave, preload duration : 500 ms

Скриншоты



Последний раз редактировалось: X-MART (2015-10-10 00:00), всего редактировалось 3 раз(а)

Создавать темы 08-Окт-2015 15:39

[Профиль]  [ЛС] 

X-MART ®

Стаж: 2 года 2 месяца

Сообщений: 21

Симпатии: 14

Модераторы, если я всё правильно сделал поставьте уже зеленую галочку, а то не могу ещё фильмы закинуть aa

Создавать темы 09-Окт-2015 19:14

[Профиль]  [ЛС] 

Каротажник

Стаж: 4 года 2 месяца

Сообщений: 195

Симпатии: 211

X-MART, скриншоты не соответствуют Тех.данным

Создавать темы 09-Окт-2015 19:31

[Профиль]  [ЛС] 

X-MART ®

Стаж: 2 года 2 месяца

Сообщений: 21

Симпатии: 14

954478X-MART, скриншоты не соответствуют Тех.данным
Теперь наверное уже соответствует

Создавать темы 09-Окт-2015 23:12

[Профиль]  [ЛС] 
Показать сообщения:    
Ответить на тему

Текущее время: 18-Дек 06:22

Часовой пояс: UTC + 5



Вы не можете начинать темы
Вы не можете отвечать на сообщения
Вы не можете редактировать свои сообщения
Вы не можете удалять свои сообщения
Вы не можете голосовать в опросах
Вы не можете прикреплять файлы к сообщениям
Вы не можете скачивать файлы