Воздух / Air (Кристиан Кантамеса) [2014, США, Драма,Трилер, HDRip] (Dub)

Ответить на тему
 

Hurracan ®

Стаж: 1 год 11 месяцев

Сообщений: 79

Симпатии: 80

Воздух / Air
Страна: США
Жанр: Драма,Трилер
Год выпуска: 2014
Продолжительность: 01:34:00
Перевод: Профессиональный (дублированный)
Cубтитры: нет
Режиссер: Кристиан Кантамеса
В ролях: Джимон Хонсу, Дэвид Найкл, Майкл Хоган, Норман Ридус, Сандрин Холт, Паула Линдберг, Питер Бенсон, Стив Бёрджесс
Описание: В центре сюжета два человека, герои Ридуса и Хонсу. Атмосфера стала совершенно непригодной для жизни, настал апокалипсис. Но у человечества еще есть шанс на спасение. Группа людей, ученых, выжила, благодаря криогенной заморозке. Только они способны спасти жизнь на Земле, и главным героям предстоит охранять их криогенный сон. Но, как оказалось, это задача не из самых простых. Впереди ребят ожидают неимоверные испытания.
Доп. информация:
Рейтинг КиноПоиск.Ru: 4.764 (470)
Рейтинг IMDb: 5.1 (2043)
Качество видео: HDRip
Формат видео: AVI
Видео: Xvid 720x304 23.976fps 1781kbps
Аудио: Dolby AC3 48000Hz 6ch 384kbps

MediaInfo

General
Complete name : C:\Users\Hurracan\Downloads\Video\Air.2015.avi
Format : AVI
Format/Info : Audio Video Interleave
File size : 1.44 GiB
Duration : 1h 34mn
Overall bit rate : 2 175 Kbps
Writing application : VirtualDubModRus 1.5.10.2 (build 2542/release)
Writing library : VirtualDubMod build 2542/release
Video
ID : 0
Format : MPEG-4 Visual
Format profile : Advanced [email protected]
Format settings, BVOP : 1
Format settings, QPel : No
Format settings, GMC : No warppoints
Format settings, Matrix : Custom
Codec ID : XVID
Codec ID/Hint : XviD
Duration : 1h 34mn
Bit rate : 1 782 Kbps
Width : 720 pixels
Height : 304 pixels
Display aspect ratio : 2.35:1
Frame rate : 23.976 fps
Color space : YUV
Chroma subsampling : 4:2:0
Bit depth : 8 bits
Scan type : Progressive
Compression mode : Lossy
Bits/(Pixel*Frame) : 0.340
Stream size : 1.18 GiB (82%)
Writing library : XviD 73
Audio
ID : 1
Format : AC-3
Format/Info : Audio Coding 3
Mode extension : CM (complete main)
Format settings, Endianness : Big
Codec ID : 2000
Duration : 1h 34mn
Bit rate mode : Constant
Bit rate : 384 Kbps
Channel(s) : 6 channels
Channel positions : Front: L C R, Side: L R, LFE
Sampling rate : 48.0 KHz
Compression mode : Lossy
Stream size : 259 MiB (18%)
Alignment : Split accross interleaves
Interleave, duration : 42 ms (1.00 video frame)
Interleave, preload duration : 500 ms

Скриншоты



Создавать темы 08-Окт-2015 16:06

[Профиль]  [ЛС] 
Показать сообщения:    
Ответить на тему

Текущее время: 20-Сен 09:01

Часовой пояс: UTC + 5



Вы не можете начинать темы
Вы не можете отвечать на сообщения
Вы не можете редактировать свои сообщения
Вы не можете удалять свои сообщения
Вы не можете голосовать в опросах
Вы не можете прикреплять файлы к сообщениям
Вы не можете скачивать файлы