Пиксели / Pixels (Крис Коламбус) [2015, США, Боевик, Комедия, Фантастика, WEBDL 1080p] [Лицензия]

Ответить на тему
 

Zab ®

Стаж: 6 лет 6 месяцев

Сообщений: 476

Симпатии: 424

Пиксели | Pixels«It's time to save the World»- Страна: США Жанр: Боевик, Комедия, Фантастика Год выпуска: 2015
Продолжительность: 01:45:51-Перевод: Профессиональный (полное дублирование) [Лицензия]-Режиссер: Крис Коламбус-В ролях: Адам Сэндлер, Брайан Кокс, Джейн Краковски, Джош Гад, Кевин Джеймс, Мишель Монахэн, Питер Динклэйдж, Шон Бин, Эшли Бенсон, Роб Арчер
-Описание: Пришельцы из космоса по ошибке трактуют тематику космических компьютерных игр как объявление им войны и атакуют Землю, используя видеоигры 80-х в качестве моделей для разнообразных стратегий вторжения. Президент страны обращается за помощью к другу детства, чемпиону тех лет по игре в автоматы Сэму Бреннеру. Тот собирает команду игроков, специалистов по аркадам, чтобы сообща одолеть пришельцев и спасти планету.-Качество видео : WEBDL 1080p Формат видео: MKV- -Видео: MPEG-4 AVC, 4336 Кбит/с, 1920x796, 23.976 кадр/с
Аудио #1: AC-3, 384 Kbps, 6 channels, 48.0 KHz, rus, [DUB] DD 5.1 @ 384 kbps [RUS]
Аудио #2: AAC, 2 channels, 44.1 KHz, ukr, [DUB] AAC 2.0 @ 160 kbps [UKR]
Аудио #3: AC-3, 384 Kbps, 6 channels, 48.0 KHz, eng, [ORIGINAL] DD 5.1 @ 384 kbps [ENG]
Субтитры: rus (Forced), rus (Full-length), ukr (Full-length), eng (Forced), eng (Full-length)
-

MediaInfo

D:\[Movies]\PIXELS_WEB_DL_1080p.mkv
General
Unique ID : 170147789147729406839768265208503302085 (0x800145AF7EB23493963929B9999D77C5)
Complete name : D:\[Movies]\PIXELS_WEB_DL_1080p.mkv
Format : Matroska
Format version : Version 4 / Version 2
File size : 3.97 GiB
Duration : 1h 45mn
Overall bit rate : 5 366 Kbps
Movie name : PIXELS_WEB_DL_1080p-BLUEBIRD
Encoded date : UTC 2015-10-07 18:56:30
Writing application : mkvmerge v7.1.0 ('Good Love') 64bit built on Jul 27 2014 13:06:55
Writing library : libebml v1.3.0 + libmatroska v1.4.1
DURATION : 01:36:22.700000000
NUMBER_OF_FRAMES : 1511
NUMBER_OF_BYTES : 53788
_STATISTICS_WRITING_APP : mkvmerge v7.1.0 ('Good Love') 64bit built on Jul 27 2014 13:06:55
_STATISTICS_WRITING_DATE_UTC : 2015-10-07 18:56:30
_STATISTICS_TAGS : BPS DURATION NUMBER_OF_FRAMES NUMBER_OF_BYTES
Video #1
ID : 1
Format : AVC
Format/Info : Advanced Video Codec
Format profile : [email protected]
Format settings, CABAC : Yes
Format settings, ReFrames : 5 frames
Codec ID : V_MPEG4/ISO/AVC
Duration : 1h 45mn
Width : 1 920 pixels
Height : 796 pixels
Display aspect ratio : 2.40:1
Frame rate mode : Constant
Frame rate : 23.976 fps
Color space : YUV
Chroma subsampling : 4:2:0
Bit depth : 8 bits
Scan type : Progressive
Title : PIXELS_WEB_DL_1080p-BLUEBIRD
Language : English
Default : Yes
Forced : No
Color primaries : BT.709
Transfer characteristics : BT.709
Matrix coefficients : BT.709
Color range : Limited
Audio #2
ID : 2
Format : AC-3
Format/Info : Audio Coding 3
Mode extension : CM (complete main)
Format settings, Endianness : Big
Codec ID : A_AC3
Duration : 1h 45mn
Bit rate mode : Constant
Bit rate : 384 Kbps
Channel(s) : 6 channels
Channel positions : Front: L C R, Side: L R, LFE
Sampling rate : 48.0 KHz
Bit depth : 16 bits
Compression mode : Lossy
Stream size : 291 MiB (7%)
Title : [DUB] DD 5.1 @ 384 kbps
Language : Russian
Default : No
Forced : No
Audio #3
ID : 3
Format : AAC
Format/Info : Advanced Audio Codec
Format profile : LC
Codec ID : A_AAC
Duration : 1h 45mn
Channel(s) : 2 channels
Channel positions : Front: L R
Sampling rate : 44.1 KHz
Compression mode : Lossy
Title : [DUB] AAC 2.0 @ 160 kbps
Language : Ukrainian
Default : No
Forced : No
Audio #4
ID : 4
Format : AC-3
Format/Info : Audio Coding 3
Mode extension : CM (complete main)
Format settings, Endianness : Big
Codec ID : A_AC3
Duration : 1h 45mn
Bit rate mode : Constant
Bit rate : 384 Kbps
Channel(s) : 6 channels
Channel positions : Front: L C R, Side: L R, LFE
Sampling rate : 48.0 KHz
Bit depth : 16 bits
Compression mode : Lossy
Stream size : 291 MiB (7%)
Title : [ORIGINAL] DD 5.1 @ 384 kbps
Language : English
Default : No
Forced : No
Text #5
ID : 5
Format : UTF-8
Codec ID : S_TEXT/UTF8
Codec ID/Info : UTF-8 Plain Text
Title : Forced
Language : Russian
Default : Yes
Forced : No
Text #6
ID : 6
Format : UTF-8
Codec ID : S_TEXT/UTF8
Codec ID/Info : UTF-8 Plain Text
Title : Full-length
Language : Russian
Default : No
Forced : No
Text #7
ID : 7
Format : UTF-8
Codec ID : S_TEXT/UTF8
Codec ID/Info : UTF-8 Plain Text
Title : Full-length
Language : Ukrainian
Default : No
Forced : No
Text #8
ID : 8
Format : UTF-8
Codec ID : S_TEXT/UTF8
Codec ID/Info : UTF-8 Plain Text
Title : Forced
Language : English
Default : No
Forced : No
Text #9
ID : 9
Format : UTF-8
Codec ID : S_TEXT/UTF8
Codec ID/Info : UTF-8 Plain Text
Title : Full-length
Language : English
Default : No
Forced : No

Скриншоты



Создавать темы 08-Окт-2015 20:06

[Профиль]  [ЛС] 

Бахытберген

Стаж: 4 года 6 месяцев

Сообщений: 66

Симпатии: 18

графика фильма нереальная! ! ! ностальгия прям) но фильм не о чём!

Создавать темы 29-Окт-2015 21:57

[Профиль]  [ЛС] 
Показать сообщения:    
Ответить на тему

Текущее время: 19-Ноя 08:03

Часовой пояс: UTC + 5



Вы не можете начинать темы
Вы не можете отвечать на сообщения
Вы не можете редактировать свои сообщения
Вы не можете удалять свои сообщения
Вы не можете голосовать в опросах
Вы не можете прикреплять файлы к сообщениям
Вы не можете скачивать файлы