Миньоны / Minions (Кайл Балда, Пьер Соффин) [2015, США, Мультфильм, Комедия, Семейный, WEB-DLRip] [iTunes]

Ответить на тему
 

ruhal ®

Стаж: 2 года 7 месяцев

Сообщений: 1181

Симпатии: 1836

- -Миньоны / Minions- - Страна: США
Жанр: Мультфильм, Комедия, Семейный
Год выпуска: 2015
Продолжительность: 01:30:51-Перевод: Профессиональный (дублированный) [iTunes]
Cубтитры: нет-Режиссер: Кайл Балда, Пьер Соффин-В ролях: Сандра Буллок, Джон Хэмм, Майкл Китон, Эллисон Дженни,
Стив Куган, Дженнифер Сондерс, Джеффри Раш, Стив Карелл, Пьер Соффин, Кэти Миксон-Описание: Миньоны живут на планете на пару миллионов лет дольше нас.
У них одна навязчивая идея — служить самой Гадкой личности из имеющихся в наличии.
Динозавры, фараоны, Дракула, Наполеон — все они оказались недолговечны. И тогда миньоны рванули в Нью-Йорк.
Их ждут деньги, власть, роковая суперзлодейка Скарлет Оверкилл и, конечно же, вкуснейшая «банана»! Во всяком случае, так им кажется.-Качество видео: WEB-DLRip
Формат видео: AVI
Видео: Xvid 720x384 23.976fps 1758kbps
Аудио: Dolby AC3 48000Hz 6ch 384kbps
-

MediaInfo

General
Complete name : E:\Films\M1H10Hy.2015.D.WEB-DLRip.avi
Format : AVI
Format/Info : Audio Video Interleave
File size : 1.37 GiB
Duration : 1h 30mn
Overall bit rate : 2 152 Kbps
Writing application : VirtualDubMod 1.5.10.3 | www.virtualdub-fr.org || (build 2550/release)
Writing library : VirtualDubMod build 2550/release
Video
ID : 0
Format : MPEG-4 Visual
Format profile : Advanced [email protected]
Format settings, BVOP : Yes
Format settings, QPel : No
Format settings, GMC : No warppoints
Format settings, Matrix : Default (MPEG)
Codec ID : XVID
Codec ID/Hint : XviD
Duration : 1h 30mn
Bit rate : 1 759 Kbps
Width : 720 pixels
Height : 384 pixels
Display aspect ratio : 1.85:1
Frame rate : 23.976 fps
Color space : YUV
Chroma subsampling : 4:2:0
Bit depth : 8 bits
Scan type : Progressive
Compression mode : Lossy
Bits/(Pixel*Frame) : 0.265
Stream size : 1.12 GiB (82%)
Writing library : XviD 1.2.1 (UTC 2008-12-04)
Audio
ID : 1
Format : AC-3
Format/Info : Audio Coding 3
Mode extension : CM (complete main)
Format settings, Endianness : Big
Codec ID : 2000
Duration : 1h 30mn
Bit rate mode : Constant
Bit rate : 384 Kbps
Channel(s) : 6 channels
Channel positions : Front: L C R, Side: L R, LFE
Sampling rate : 48.0 KHz
Bit depth : 16 bits
Compression mode : Lossy
Stream size : 250 MiB (18%)
Alignment : Split accross interleaves
Interleave, duration : 42 ms (1.00 video frame)
Interleave, preload duration : 500 ms

Скриншоты



Создавать темы 08-Окт-2015 20:54

[Профиль]  [ЛС] 

Топик был перенесен из форума Фильмы за 2015 в форум Мультфильмы
Каротажник

Создавать темы 08-Окт-2015 21:00

 

DestinY

Стаж: 6 лет 11 месяцев

Сообщений: 3

Симпатии: 1

можете зайти пожалуйста

Создавать темы 07-Май-2016 20:12

[Профиль]  [ЛС] 

iamrazer

Стаж: 2 года 8 месяцев

Сообщений: 31

Симпатии: 3

дайте сек скрпрсит для скачкиии

Создавать темы 03-Авг-2016 10:15

[Профиль]  [ЛС] 

iamrazer

Стаж: 2 года 8 месяцев

Сообщений: 31

Симпатии: 3

дайте скорость для скачки пожалуйста

Создавать темы 03-Авг-2016 10:16

[Профиль]  [ЛС] 

iamrazer

Стаж: 2 года 8 месяцев

Сообщений: 31

Симпатии: 3

скооороость плис

Создавать темы 03-Авг-2016 11:39

[Профиль]  [ЛС] 

iamrazer

Стаж: 2 года 8 месяцев

Сообщений: 31

Симпатии: 3

дайте скорость

Создавать темы 04-Авг-2016 11:23

[Профиль]  [ЛС] 

iamrazer

Стаж: 2 года 8 месяцев

Сообщений: 31

Симпатии: 3

скооорость дайтеее

Создавать темы 05-Авг-2016 00:37

[Профиль]  [ЛС] 
Показать сообщения:    
Ответить на тему

Текущее время: 23-Ноя 12:48

Часовой пояс: UTC + 5



Вы не можете начинать темы
Вы не можете отвечать на сообщения
Вы не можете редактировать свои сообщения
Вы не можете удалять свои сообщения
Вы не можете голосовать в опросах
Вы не можете прикреплять файлы к сообщениям
Вы не можете скачивать файлы