Тихие омуты / Эйнджел / Still Waters / Angel (Рей Бердис / Ray Burdis) [2015, Великобритания, Триллер, WEB-DLRip] (den904 & DeadSno / chup)

Ответить на тему
 

UZM ®

Стаж: 5 лет 5 месяцев

Сообщений: 169

Симпатии: 189

Тихие омуты / Эйнджел / Still Waters / Angel
Страна: Великобритания
Жанр: Триллер
Год выпуска: 2015
Продолжительность: 01:23:21
Перевод: Любительский (двухголосый закадровый) Доп. инфо о переводе den904 & DeadSno / chup
Cубтитры: нет
Режиссер: Рей Бердис / Ray Burdis
В ролях: Джон Ханна, Марго Стилли, Карел Роден, Марк Бердис, Дженн Мюррэй, Питер-Хьюго Дэйли, Джорджина Хейл, Джейсон Мацца, Кристофер Сиуреф, Берил Несбитт
Описание: В небольшом английском городке живет милая девушка Эйнджел, чисто ангел во плоти, тихая и робкая, очень любящая свою бабушку. Но никто не знает, что, в прошлом, ее бабушка была организатором детских вечеринок для высокопоставленных педофилов.
Доп. информация: Основано на книге Найджела Макрери "Средоточие зла".
Качество видео: WEB-DLRip
Формат видео: AVI
Видео: Xvid 720x304 24fps 2132kbps
Аудио: AC3 48,0Hz stereo 192kbps (русский)
Аудио 2: AC3 48,0z stereo 192kbps (английский)

MediaInfo

General
Complete name : I:\Кино\Still.Waters.2015.L2.WEB-DLRip.avi
Format : AVI
Format/Info : Audio Video Interleave
File size : 1.47 GiB
Duration : 1h 23mn
Overall bit rate : 2 531 Kbps
Writing application : VirtualDubMod 1.5.10.3 | www.virtualdub-fr.org || (build 2550/release)
Writing library : VirtualDubMod build 2550/release
Video
ID : 0
Format : MPEG-4 Visual
Format profile : Advanced [email protected]
Format settings, BVOP : 1
Format settings, QPel : No
Format settings, GMC : No warppoints
Format settings, Matrix : Custom
Codec ID : XVID
Codec ID/Hint : XviD
Duration : 1h 23mn
Bit rate : 2 133 Kbps
Width : 720 pixels
Height : 304 pixels
Display aspect ratio : 2.35:1
Frame rate : 24.000 fps
Color space : YUV
Chroma subsampling : 4:2:0
Bit depth : 8 bits
Scan type : Progressive
Compression mode : Lossy
Bits/(Pixel*Frame) : 0.406
Stream size : 1.24 GiB (84%)
Writing library : XviD 73
Audio #1
ID : 1
Format : AC-3
Format/Info : Audio Coding 3
Mode extension : CM (complete main)
Format settings, Endianness : Big
Codec ID : 2000
Duration : 1h 23mn
Bit rate mode : Constant
Bit rate : 192 Kbps
Channel(s) : 2 channels
Channel positions : Front: L R
Sampling rate : 48.0 KHz
Compression mode : Lossy
Stream size : 114 MiB (8%)
Alignment : Split accross interleaves
Interleave, duration : 42 ms (1.00 video frame)
Interleave, preload duration : 500 ms
Audio #2
ID : 2
Format : AC-3
Format/Info : Audio Coding 3
Mode extension : CM (complete main)
Format settings, Endianness : Big
Codec ID : 2000
Duration : 1h 23mn
Bit rate mode : Constant
Bit rate : 192 Kbps
Channel(s) : 2 channels
Channel positions : Front: L R
Sampling rate : 48.0 KHz
Compression mode : Lossy
Stream size : 114 MiB (8%)
Alignment : Split accross interleaves
Interleave, duration : 42 ms (1.00 video frame)
Interleave, preload duration : 500 ms

Скриншот c названием фильма

Скриншоты

,
,
,


Последний раз редактировалось: UZM (2015-10-09 03:06), всего редактировалось 1 раз

Создавать темы 08-Окт-2015 21:45

[Профиль]  [ЛС] 

Каротажник

Стаж: 4 года 1 месяц

Сообщений: 195

Симпатии: 211

UZM, шапку поправил и за релиз спасибо

Создавать темы 09-Окт-2015 03:08

[Профиль]  [ЛС] 

UZM ®

Стаж: 5 лет 5 месяцев

Сообщений: 169

Симпатии: 189

Каротажник, Весьма рад, спасибо!

Создавать темы 09-Окт-2015 07:36

[Профиль]  [ЛС] 
Показать сообщения:    
Ответить на тему

Текущее время: 18-Ноя 19:09

Часовой пояс: UTC + 5



Вы не можете начинать темы
Вы не можете отвечать на сообщения
Вы не можете редактировать свои сообщения
Вы не можете удалять свои сообщения
Вы не можете голосовать в опросах
Вы не можете прикреплять файлы к сообщениям
Вы не можете скачивать файлы