Виселица / The Gallows (Трэвис Клафф, Крис Лофинг) [2015., ужасы, триллер, HDRip][Чистый звук]

Ответить на тему
 

DXgame ®

Стаж: 4 года 11 месяцев

Сообщений: 128

Симпатии: 144

Виселица / The Gallows Год выпуска: 2015
Страна: США
Жанр: Ужасы, Триллер
Продолжительность: 01:20:47
Перевод: Дублированный [Чистый звук]-Режиссеры: Трэвис Клафф, Крис Лофинг-В ролях: Риз Мишлер, Пфайфер Брау, Райан Шу, Кэссиди Гиффорд, Трэвис Клафф, Прайс Т. Морган, Тео Буркхардт, Дэвид Херрера, Гэннон Дель Фиерро, Маки Берт-Описание:
Спустя 20 лет после трагического несчастного случая при постановке школьной пьесы учащиеся решают вновь поставить ее с целью почтить память погибшего ученика. Но в некоторых случаях прошлое лучше не ворошить…-Возраст: зрителям, достигшим 16 лет
Рейтинг MPAA: детям до 13 лет просмотр не желателен-Качество: HDRip
Формат: AVI
Видео кодек: XviD
Аудио кодек: AC3
Видео: XviD, 1987 Kb/s, 720x400
Аудио #1: AC3, 192 Kb/s (2 ch) | RUS
Аудио #2: AC3, 384 Kb/s (6 ch) | ENG

MediaInfo

General
Format                         : AVI
Format/Info                    : Audio Video Interleave
File size                      : 1.45 GiB
Duration                       : 1h 20mn
Overall bit rate               : 2 578 Kbps
Movie name                     : 8i7e1i3a.2015.D.HDRip.ELEKTRI4KA.uniongang.tv
Writing application            : VirtualDubMod 1.5.10.3 | www.virtualdub-fr.org || (build 2550/release)
Copyright                      : UNIONGANG&RUSTORRENTS
Video
ID                             : 0
Format                         : MPEG-4 Visual
Format profile                 : Advanced [email protected]
Format settings, BVOP          : Yes
Format settings, QPel          : No
Format settings, GMC           : No warppoints
Format settings, Matrix        : Default (MPEG)
Codec ID                       : XVID
Codec ID/Hint                  : XviD
Duration                       : 1h 20mn
Bit rate                       : 1 988 Kbps
Width                          : 720 pixels
Height                         : 400 pixels
Display aspect ratio           : 16:9
Frame rate                     : 23.976 fps
Color space                    : YUV
Chroma subsampling             : 4:2:0
Bit depth                      : 8 bits
Scan type                      : Progressive
Compression mode               : Lossy
Bits/(Pixel*Frame)             : 0.288
Stream size                    : 1.12 GiB (77%)
Writing library                : XviD 1.2.1 (UTC 2008-12-04)
Audio #1
ID                             : 1
Format                         : AC-3
Format/Info                    : Audio Coding 3
Mode extension                 : CM (complete main)
Format settings, Endianness    : Big
Codec ID                       : 2000
Duration                       : 1h 20mn
Bit rate mode                  : Constant
Bit rate                       : 192 Kbps
Channel(s)                     : 2 channels
Channel positions              : Front: L R
Sampling rate                  : 48.0 KHz
Bit depth                      : 16 bits
Compression mode               : Lossy
Stream size                    : 111 MiB (7%)
Alignment                      : Split accross interleaves
Interleave, duration           : 42 ms (1.00 video frame)
Interleave, preload duration   : 500 ms
Audio #2
ID                             : 2
Format                         : AC-3
Format/Info                    : Audio Coding 3
Mode extension                 : CM (complete main)
Format settings, Endianness    : Big
Codec ID                       : 2000
Duration                       : 1h 20mn
Bit rate mode                  : Constant
Bit rate                       : 384 Kbps
Channel(s)                     : 6 channels
Channel positions              : Front: L C R, Side: L R, LFE
Sampling rate                  : 48.0 KHz
Bit depth                      : 16 bits
Compression mode               : Lossy
Stream size                    : 222 MiB (15%)
Alignment                      : Split accross interleaves
Interleave, duration           : 42 ms (1.00 video frame)
Interleave, preload duration   : 500 ms

Скриншоты



Создавать темы 11-Окт-2015 18:36

[Профиль]  [ЛС] 
Показать сообщения:    
Ответить на тему

Текущее время: 27-Сен 01:54

Часовой пояс: UTC + 5



Вы не можете начинать темы
Вы не можете отвечать на сообщения
Вы не можете редактировать свои сообщения
Вы не можете удалять свои сообщения
Вы не можете голосовать в опросах
Вы не можете прикреплять файлы к сообщениям
Вы не можете скачивать файлы