Кибер-террор / Cyberbully (Бен Чанан) [2015, Великобритания, триллер, драма, детектив, HDRip] (MVO)

Ответить на тему
 

Davron1402 ®

Стаж: 3 года 8 месяцев

Сообщений: 136

Симпатии: 122

Кибер-террор / Cyberbully- Страна: Великобритания
Жанр: триллер, драма, детектив
Год выпуска: 2015
Продолжительность: 01:01:48
Перевод: Профессиональный (многоголосый закадровый)
Cубтитры: нет
Режиссер: Бен Чанан-В ролях: Мэйси Уильямс, Элла Пернелл, Уилсон Хаагенс, Энтони Шустер, Харука Абе, Джейк Дейвис, Дейзи Уотерстон-Описание: Молодая девушка вынуждена выполнять все указания ненормального хакера, в противном случае её интимные фото попадут в сеть…-Качество видео: HDRip
Формат видео: MKV
Видео: AVC, 1280 x 532 (2.40:1), 25.000 fps, 2 569 Kbps
Аудио 1: AC-3, 48.0 KHz, 2 channels, 192 Kbps
Аудио 2: AC-3, 48.0 KHz, 2 channels, 192 Kbps-

MediaInfo

Имя файла: Kiber.terror.2015.P.WEBDL.720p.mkv
Формат файла: .mkv (Matroska)
Размер файла: 1.28 GB
Длительность: 1h 1mn
Навигация по главам: Нет
Bitrate (все потоки): 2 954 Kbps
Файл создан...: UTC 2015-09-30 12:51:55
Название: Kiber.terror.2015.P.WEBDL.720p
Тип потока: Видео
Длительность: 01:01:48
Кодек: AVC
Кодек/Профиль: [email protected]
Кодек/ID: V_MPEG4/ISO/AVC
Кодек/CABAC: Yes
Кодек/ReFrames: 4 frames
Размеры изображения: 1280 x 532 (2.40:1)
Частота кадров: 25.000 fps
Размер потока: 1.08 GiB (85%)
Битрейт: 2 569 Kbps
Библиотека кодирования: x264 core 142
Цветовое пространство: YUV
Тип развёртки: Progressive
Глубина: 8 bits
Тип потока: Звук #1
Язык: Russian
Длительность: 01:01:48.256
Кодек: AC-3
Кодек/ID: A_AC3
Частота дискретизации: 48.0 KHz
Каналов: 2 channels
Битрейт: 192 Kbps
Битрейт/тип: Constant
Размер потока: 84.9 MiB (7%)
Глубина: 16 bits
Метод сжатия: Lossy
Тип потока: Звук #2
Язык: English
Длительность: 01:01:48.256
Кодек: AC-3
Кодек/ID: A_AC3
Частота дискретизации: 48.0 KHz
Каналов: 2 channels
Битрейт: 192 Kbps
Битрейт/тип: Constant
Размер потока: 84.9 MiB (7%)
Глубина: 16 bits
Метод сжатия: Lossy

Скриншоты



Создавать темы 11-Окт-2015 22:53

[Профиль]  [ЛС] 

Davron1402 ®

Стаж: 3 года 8 месяцев

Сообщений: 136

Симпатии: 122

раздавайте всем

Создавать темы 12-Окт-2015 13:57

[Профиль]  [ЛС] 

muhriddin3531

Стаж: 1 год 10 месяцев

Сообщений: 2

Симпатии: 7

ojidaniya massa, okazalas tak sebe. mojna posmotret vovremya skuki. lichna mne ne ponravelos.

Создавать темы 17-Ноя-2015 23:34

[Профиль]  [ЛС] 

outoforder

Стаж: 4 года 10 месяцев

Сообщений: 812

Симпатии: 172

Какой же нудный фильм. И вечно бедные хомячки выпиливаются из-за троллей.

Создавать темы 03-Дек-2015 14:45

[Профиль]  [ЛС] 

TronT

Стаж: 6 лет 11 месяцев

Сообщений: 27

Симпатии: 7

Фото такой жирной и страшной девушки я бы даже не решился открыть посмотреть)) Провальный план у террориста)

Создавать темы 11-Дек-2015 10:14

[Профиль]  [ЛС] 
Показать сообщения:    
Ответить на тему

Текущее время: 23-Сен 05:14

Часовой пояс: UTC + 5



Вы не можете начинать темы
Вы не можете отвечать на сообщения
Вы не можете редактировать свои сообщения
Вы не можете удалять свои сообщения
Вы не можете голосовать в опросах
Вы не можете прикреплять файлы к сообщениям
Вы не можете скачивать файлы