Бомбейский бархат / Bombay Velvet (Анураг Кашьяп) [2015, Индия, Триллер, драма, криминал, HDRip] (DVO : DeadSno & Den904) (Sub Rus)

Ответить на тему
 

Davron1402 ®

Стаж: 3 года 8 месяцев

Сообщений: 136

Симпатии: 122

Бомбейский бархат / Bombay Velvet- Страна: Индия
Жанр: Триллер, драма, криминал
Год выпуска: 2015
Продолжительность: 02:30:33
Перевод: Любительский (двухголосый закадровый) [DeadSno & Den904]-Cубтитры: русские(на песни)
Режиссер: Анураг Кашьяп-В ролях: Ранбир Капур, Анушка Шарма, Кей Кей Менон, Каран Джохар, Мукеш Чхабра, Маниш Чаудхари, Сатьядип Мисра, Сиддартха Басу, Виван Шах, Вики Каушал, Атул Шривастав, Равина Тандон-Описание: Конец 60-х. Никому неизвестного, простого парня, буквально выросшего на улице, и никогда не знавшего ни любви, ни ласки матери, заносит с другом в местный кинотеатр Бомбея. Посмотрев культовый голливудский криминал начала 40-х годов и вдохновившись главным героем фильма, наш парень тут же создаёт себе прообраз "Крутого парня". Думая, что в жизни, всё - как в кино, он решает разбогатеть быстрым способом и вместе со своим приятелем отправляется ограбить банк, а точнее - первого попавшегося толстосума. Ненароком натыкаясь на главаря местной гангстерской группировки, наш простофиля, а ныне, Джонни Балрадж становится менеджером одного из самых элитных клубов в Бомбее того времени - "Бомбейский бархат". В этом клубе собирается вся элита города, разливаются самые дорогие сорта виски, танцуют девушки-кабаре и кипит ночная жизнь. Именно здесь поёт под джаз-музыку Рози - девушка с ангельским лицом и грустными глазами. Джонни без памяти влюбляется в прекрасную незнакомку, не зная, что он не единственный, кто положил на неё глаз...-Качество видео: HDRip
Формат видео: AVI
Видео: MPEG-4 Visual, 720 x 304 (2.35:1), 24.000 fps, 1 253 Kbps
Аудио: MPEG Audio, 48.0 KHz, 2 channels, 128 Kbps-

MediaInfo

Имя файла: Bombeyskiy.Barhat.2015.HDRip.avi
Формат файла: .avi (AVI)
Размер файла: 1.46 GB
Длительность: 2h 30mn
Навигация по главам: Нет
Bitrate (все потоки): 1 390 Kbps
Название: Bombeyskiy.Barhat.2015.HDRip
Тип потока: Видео
Длительность: 02:30:33
Кодек: MPEG-4 Visual
Кодек/Профиль: Advanced [email protected]
Кодек/ID: XVID
Размеры изображения: 720 x 304 (2.35:1)
Частота кадров: 24.000 fps
Размер потока: 1.32 GiB (90%)
Битрейт: 1 253 Kbps
Библиотека кодирования: XviD 1.2.1 (UTC 2008-12-04)
Цветовое пространство: YUV
Тип развёртки: Progressive
Глубина: 8 bits
Тип потока: Звук #1
Длительность: 02:30:33.720
Кодек: MPEG Audio
Кодек/Профиль: Layer 3
Кодек/ID: 55
Частота дискретизации: 48.0 KHz
Каналов: 2 channels
Битрейт: 128 Kbps
Битрейт/тип: Constant
Размер потока: 138 MiB (9%)
Метод сжатия: Lossy
Программа: LAME3.98r

Скриншоты




Создавать темы 12-Окт-2015 14:58

[Профиль]  [ЛС] 

Davron1402 ®

Стаж: 3 года 8 месяцев

Сообщений: 136

Симпатии: 122

Раздача будет завтра

Создавать темы 12-Окт-2015 17:36

[Профиль]  [ЛС] 

Davron1402 ®

Стаж: 3 года 8 месяцев

Сообщений: 136

Симпатии: 122

 

Создавать темы 13-Окт-2015 21:46

[Профиль]  [ЛС] 
Показать сообщения:    
Ответить на тему

Текущее время: 25-Сен 00:31

Часовой пояс: UTC + 5



Вы не можете начинать темы
Вы не можете отвечать на сообщения
Вы не можете редактировать свои сообщения
Вы не можете удалять свои сообщения
Вы не можете голосовать в опросах
Вы не можете прикреплять файлы к сообщениям
Вы не можете скачивать файлы