Dragon Ball Z Movie 15: Fukkatsu no F / Драконий Жемчуг Зет: Воскрешение «Ф» (Tadayoshi Yamamuro) [MOVIE] [Без хардсаба] [JAP] [2015г., приключения, фэнтези BDRip] [720p]

Ответить на тему
 

SoluSoull ®

Стаж: 2 года 7 месяцев

Сообщений: 379

Симпатии: 452

Dragon Ball Z Movie 15: Fukkatsu no F-Драконий Жемчуг Зет: Воскрешение «Ф» -Производство: Япония
Год выпуска: 2015
Жанр: приключения, фэнтези
Тип: полнометражный фильм, 95 мин.-Режиссёр: Tadayoshi Yamamuro
Автор оригинала: Akira Toriyama
Студия: TOEI ANIMATION-Описание: An Earth where peace has arrived. However, remnants of Frieza's army Sorbet and Tagoma (from the Japanese word for 'egg') arrive on the planet. Their goal is to revive Frieza with the dragon balls. Their dastardly wish is granted, the "F" that plans its revenge against the Saiyans is revived...!-Качество: BDRip | Хардсаб: отсутствует | Формат: MKV
Видео: H.264, 1280x720, 4474 kbps, 23.976 fps
Аудио: DTS, 6 Ch, 48000Hz, 755 kbps-

Скриншоты


MI

General
Unique ID : 204342516996680896147990806073237424894 (0x99BAEFEEEE25F902A26E5B035B09CAFE)
Complete name : E:\Downloads\[Anime Land] Dragon Ball Z Movie 15 Fukkatsu no F Bluray 720p Hi10P DTS RAW [8688A03D].mkv
Format : Matroska
Format version : Version 4 / Version 2
File size : 3.50 GiB
Duration : 1h 33mn
Overall bit rate : 5 334 Kbps
Encoded date : UTC 2015-10-09 10:42:05
Writing application : mkvmerge v8.2.0 ('World of Adventure') 32bit
Writing library : libebml v1.3.1 + libmatroska v1.4.2
Video
ID : 1
Format : AVC
Format/Info : Advanced Video Codec
Format profile : High [email protected]
Format settings, CABAC : Yes
Format settings, ReFrames : 16 frames
Codec ID : V_MPEG4/ISO/AVC
Duration : 1h 33mn
Bit rate : 4 474 Kbps
Width : 1 280 pixels
Height : 720 pixels
Display aspect ratio : 16:9
Frame rate mode : Constant
Frame rate : 23.976 fps
Color space : YUV
Chroma subsampling : 4:2:0
Bit depth : 10 bits
Scan type : Progressive
Bits/(Pixel*Frame) : 0.202
Stream size : 2.94 GiB (84%)
Title : H264 Hi10P 720p By Omar
Writing library : x264 core 133 r2334 a3ac64b
Encoding settings : cabac=1 / ref=16 / deblock=1:-1:-1 / analyse=0x3:0x133 / me=umh / subme=10 / psy=1 / psy_rd=1.00:0.00 / mixed_ref=1 / me_range=24 / chroma_me=1 / trellis=2 / 8x8dct=1 / cqm=0 / deadzone=21,11 / fast_pskip=0 / chroma_qp_offset=-2 / threads=18 / lookahead_threads=4 / sliced_threads=0 / nr=0 / decimate=1 / interlaced=0 / bluray_compat=0 / constrained_intra=0 / bframes=10 / b_pyramid=2 / b_adapt=2 / b_bias=0 / direct=3 / weightb=1 / open_gop=0 / weightp=2 / keyint=250 / keyint_min=23 / scenecut=40 / intra_refresh=0 / rc_lookahead=60 / rc=crf / mbtree=1 / crf=15.0 / qcomp=0.60 / qpmin=0 / qpmax=81 / qpstep=4 / ip_ratio=1.40 / aq=2:1.00
Language : Japanese
Default : Yes
Forced : No
Audio
ID : 2
Format : DTS
Format/Info : Digital Theater Systems
Mode : 16
Format settings, Endianness : Big
Codec ID : A_DTS
Duration : 1h 33mn
Bit rate mode : Constant
Bit rate : 755 Kbps
Channel(s) : 6 channels
Channel positions : Front: L C R, Side: L R, LFE
Sampling rate : 48.0 KHz
Bit depth : 24 bits
Compression mode : Lossy
Stream size : 507 MiB (14%)
Title : DTS 768 Kbps 5.1 By Omar
Language : Japanese
Default : Yes
Forced : No
Menu
00:00:00.000 : :1
00:03:59.781 : :2
00:08:08.947 : :3
00:11:24.392 : :4
00:18:09.088 : :5
00:25:42.499 : :6
00:33:17.621 : :7
00:38:44.030 : :8
00:43:08.419 : :9
00:50:59.974 : :10
00:57:27.277 : :11
01:03:13.915 : :12
01:08:56.758 : :13
01:12:07.740 : :14
01:16:48.896 : :15
01:21:49.947 : :16
01:23:53.570 : :17
01:26:42.864 : :18
01:29:21.356 : :19
01:33:05.413 : :20

Создавать темы 12-Окт-2015 18:35

[Профиль]  [ЛС] 

SNIL

Стаж: 5 лет 9 месяцев

Сообщений: 2624

Симпатии: 341

ЧТо то я не понял, вобще без перевода чтоли?
Временную поставить? звук или сабы будут?

Создавать темы 12-Окт-2015 19:18

[Профиль]  [ЛС] 

SoluSoull ®

Стаж: 2 года 7 месяцев

Сообщений: 379

Симпатии: 452

954884ЧТо то я не понял, вобще без перевода чтоли?
Временную поставить? звук или сабы будут?
нет не будут, daniellya попросил запилить, сабы пусть сам ищет))
озвучки тоже не будет, после, как озвучат, скачаю другую равку, с уже вшитой озвучкой, таймить звук не хочу под эту равку (в смысле, не умею(лень:):)

Создавать темы 12-Окт-2015 19:37

[Профиль]  [ЛС] 

daniellya

Стаж: 5 лет 6 месяцев

Сообщений: 338

Симпатии: 29

***
окай, я вас понял
SoluSoull, сяп, стяну как восстановят сеть (~2 недели) и вновь заплачу кровавыми слезами, бгггг.
Добавь ансаб, чтобы не было попрошайки сабов в ташиксе и любители наехать ниетпиривода в рилизе!!!разразраз
http://subs.com.ru/page.php?id=41214&highlight=DRAGON%2BBALL%2BZ
Это самое бери или [Beers]Dragon_Ball_Z_-_Resurrection_'F'_[BD][720p-10bit][FLAC][C0EBAA1F].ass
или
Dragon Ball Z - Resurrection F [DragonTeam][720p][1B10B411].ass
или
Dragon Ball Z - Movie 15 - Resurrection 'F' [CF&B][720p][13EA91BC].ass (эти стандартные, без всяких наворотов и эффектов)
Остальное в папке не брать, они для андаба, а там порой переворачивают с ног на голову.
Если тайминг не совпадет с равкой, сообщи, отредактирую и перешлю.

Предупреждение от SNIL


Такое лучше оставлять при себе!
P.S Не надо провоцировать людей на холивар!


Последний раз редактировалось: daniellya (2015-10-12 19:58), всего редактировалось 2 раз(а)

Создавать темы 12-Окт-2015 20:07

[Профиль]  [ЛС] 

SoluSoull ®

Стаж: 2 года 7 месяцев

Сообщений: 379

Симпатии: 452

здесь ведь было что то ?)

Создавать темы 12-Окт-2015 20:12

[Профиль]  [ЛС] 

SoluSoull ®

Стаж: 2 года 7 месяцев

Сообщений: 379

Симпатии: 452

954894
SoluSoull, стяну как восстановят сеть (~2 недели)
какие две недели ? уменя через эти две недели белый ип закончится, ну я это предупредил))

Создавать темы 12-Окт-2015 20:16

[Профиль]  [ЛС] 

daniellya

Стаж: 5 лет 6 месяцев

Сообщений: 338

Симпатии: 29

Там был стеб, который модер потер
йа успею )
Эх, уговорил, стягиваю сейчас пока дали возможность.

Создавать темы 12-Окт-2015 20:21

[Профиль]  [ЛС] 
Показать сообщения:    
Ответить на тему

Текущее время: 22-Окт 00:34

Часовой пояс: UTC + 5



Вы не можете начинать темы
Вы не можете отвечать на сообщения
Вы не можете редактировать свои сообщения
Вы не можете удалять свои сообщения
Вы не можете голосовать в опросах
Вы не можете прикреплять файлы к сообщениям
Вы не можете скачивать файлы