Тайны Лауры / The Mysteries of Laura / Сезон: 1 / Серии: 1-22 из 22 (Jeff Rake) [2014, детектив, комедия, WEB-DLRip] (DVO : Любительский (двухголосый закадровый) Kiitos)

Ответить на тему
 

Dustmurod ®

Стаж: 4 года 10 месяцев

Сообщений: 21

Тайны Лауры / The Mysteries of Laura
Год выпуска: 2014
Страна: США
Жанр: детектив, комедия
Продолжительность: ~42 мин.
Перевод: Любительский двухголосый закадровый Доп. инфо о переводе Любительский (двухголосый закадровый) Kiitos
Русские субтитры: нет
Режиссёр: Jeff Rake
В ролях: Дебра Мессинг, Джош Лукас, Лас Алонсо, Янина Гаванкар, Илана Бекер, Мерли Бермудез, Лайла Элиз, Дэн Финнерти
Описание: В центре сюжета находится детектив нью-йоркской полиции Лаура Дэймонд, роль которой исполняет Дебра Мессинг, жонглирующая работой и жизнью матери-одиночки с двумя непослушными близнецами.
Ссылка на предыдущие и альтернативные раздачи: https://tas-ix.net/viewtopic.php?t=99911
Качество: WEB-DLRip
Формат: AVI
Видео кодек: XviD
Аудио кодек: MP3
Видео: XviD, 720x400 (16:9), 23.976 fps, 1361 kbps
Аудио: MP3, 48 kHz, stereo, 192 kbps
Субтитры: отсутствуют

MediaInfo

General
Format : AVI
Format/Info : Audio Video Interleave
File size : 479 MiB
Duration : 42mn 49s
Overall bit rate : 1 562 Kbps
Writing application : VirtualDubMod 1.5.10.2 (build 2540/release)
Writing library : VirtualDubMod build 2540/release
Video
ID : 0
Format : MPEG-4 Visual
Format profile : Advanced [email protected]
Format settings, BVOP : No
Format settings, QPel : No
Format settings, GMC : No warppoints
Format settings, Matrix : Default (H.263)
Codec ID : XVID
Codec ID/Hint : XviD
Duration : 42mn 49s
Bit rate : 1 361 Kbps
Width : 720 pixels
Height : 400 pixels
Display aspect ratio : 16:9
Frame rate : 23.976 fps
Color space : YUV
Chroma subsampling : 4:2:0
Bit depth : 8 bits
Scan type : Progressive
Compression mode : Lossy
Bits/(Pixel*Frame) : 0.197
Stream size : 417 MiB (87%)
Writing library : XviD 1.2.1 (UTC 2008-12-04)
Audio
ID : 1
Format : MPEG Audio
Format version : Version 1
Format profile : Layer 3
Mode : Joint stereo
Codec ID : 55
Codec ID/Hint : MP3
Duration : 42mn 49s
Bit rate mode : Constant
Bit rate : 192 Kbps
Channel(s) : 2 channels
Sampling rate : 48.0 KHz
Compression mode : Lossy
Stream size : 58.8 MiB (12%)
Alignment : Aligned on interleaves
Interleave, duration : 42 ms (1.00 video frame)
Interleave, preload duration : 504 ms

Скриншоты





Последний раз редактировалось: Dustmurod (2015-10-13 21:06), всего редактировалось 1 раз

Создавать темы 13-Окт-2015 16:49

[Профиль]  [ЛС] 
Показать сообщения:    
Ответить на тему

Текущее время: 15-Дек 17:21

Часовой пояс: UTC + 5



Вы не можете начинать темы
Вы не можете отвечать на сообщения
Вы не можете редактировать свои сообщения
Вы не можете удалять свои сообщения
Вы не можете голосовать в опросах
Вы не можете прикреплять файлы к сообщениям
Вы не можете скачивать файлы