Инфинити - Как тебя звать? / 2015 / Pop / MasterRip (1080p)

Ответить на тему
 

bbk ®

Стаж: 6 лет 9 месяцев

Сообщений: 435

Симпатии: 479

Инфинити - Как тебя звать? Исполнитель: Инфинити
Год выпуска: 2015
Жанр: Pop
Продолжительность: 03:35
Качество: MasterRip
Контейнер: MP4
Видео кодек: H.264
Аудио кодек: AAC
Видео: AVC 1920x1080 23.2 Mbps, 25.000 fps
Аудио: AAC 48.0 kHz AAC 2 ch 317 kbps

Отчёт MediaInfo / BDInfo

Complete name : Инфинити - Как тебя звать.mp4
Format : MPEG-4
Format profile : Base Media / Version 2
Codec ID : mp42
File size : 603 MiB
Duration : 3mn 34s
Overall bit rate mode : Variable
Overall bit rate : 23.6 Mbps
©TIM : 00:00:00:00
©TSC : 25
©TSZ : 1
Video
ID : 1
Format : AVC
Format/Info : Advanced Video Codec
Format profile : [email protected]
Format settings, CABAC : Yes
Format settings, ReFrames : 3 frames
Codec ID : avc1
Codec ID/Info : Advanced Video Coding
Duration : 3mn 34s
Bit rate mode : Constant
Bit rate : 23.2 Mbps
Nominal bit rate : 25.5 Mbps
Width : 1 920 pixels
Height : 1 080 pixels
Display aspect ratio : 16:9
Frame rate mode : Constant
Frame rate : 25.000 fps
Standard : PAL
Color space : YUV
Chroma subsampling : 4:2:0
Bit depth : 8 bits
Scan type : Progressive
Bits/(Pixel*Frame) : 0.448
Stream size : 594 MiB (99%)
Language : English
Color range : Limited
Audio
ID : 2
Format : AAC
Format/Info : Advanced Audio Codec
Format profile : LC
Codec ID : 40
Duration : 3mn 34s
Source duration : 3mn 34s
Bit rate mode : Variable
Bit rate : 317 Kbps
Maximum bit rate : 421 Kbps
Channel(s) : 2 channels
Channel positions : Front: L R
Sampling rate : 48.0 KHz
Compression mode : Lossy
Stream size : 8.12 MiB (1%)
Source stream size : 8.12 MiB (1%)
Language : English

Скриншоты



Последний раз редактировалось: bbk (2016-07-23 16:07), всего редактировалось 13 раз(а)

Создавать темы 13-Окт-2015 18:28

[Профиль]  [ЛС] 
Показать сообщения:    
Ответить на тему

Текущее время: 16-Авг 22:20

Часовой пояс: UTC + 5



Вы не можете начинать темы
Вы не можете отвечать на сообщения
Вы не можете редактировать свои сообщения
Вы не можете удалять свои сообщения
Вы не можете голосовать в опросах
Вы не можете прикреплять файлы к сообщениям
Вы не можете скачивать файлы