Ферма Чарли / Charlie's Farm (Крис Сан / Chric San) [2014, Австралия, Ужасы, HDRip] (DVO : daynet)

Ответить на тему
 

UZM ®

Стаж: 5 лет 5 месяцев

Сообщений: 169

Симпатии: 189

Ферма Чарли / Charlie's Farm
Страна: Австралия
Жанр: Ужасы
Год выпуска: 2014
Продолжительность: 01:33:05
Перевод: Любительский (одноголосый закадровый) Доп. инфо о переводе daynet
Cубтитры: нет
Режиссер: Крис Сан / Chric San
В ролях: Тара Рид, Нэйтан Джонс, Кэйн Ходдер, Билл Моусли, Дженна Шанель Хэйес, Дэвид Бимиш, Камерон Колфилд, Мадлен Кеннеди...
Описание: В попытке сделать что-то необычное четверо друзей отправляются вглубь Австралии, чтобы исследовать ферму Чарли — место, где жестокая семья была убита разъяренной толпой…
Качество видео: HDRip
Формат видео: AVI
Видео: MPEG-4, Xvid 720x304 24fps 1779kbps
Аудио: Dolby AC3 48,0Hz 6ch 448kbps

MediaInfo

General
Complete name : I:\Кино\F3rma.Charl1.2014.L1.HDRip.1.46GB.avi
Format : AVI
Format/Info : Audio Video Interleave
File size : 1.45 GiB
Duration : 1h 33mn
Overall bit rate : 2 237 Kbps
Writing application : VirtualDubMod 1.5.10.2 (build 2540/release)
Writing library : VirtualDubMod build 2540/release
Video
ID : 0
Format : MPEG-4 Visual
Format profile : Advanced [email protected]
Format settings, BVOP : 2
Format settings, QPel : No
Format settings, GMC : No warppoints
Format settings, Matrix : Default (MPEG)
Codec ID : XVID
Codec ID/Hint : XviD
Duration : 1h 33mn
Bit rate : 1 780 Kbps
Width : 720 pixels
Height : 304 pixels
Display aspect ratio : 2.35:1
Frame rate : 24.000 fps
Color space : YUV
Chroma subsampling : 4:2:0
Bit depth : 8 bits
Scan type : Progressive
Compression mode : Lossy
Bits/(Pixel*Frame) : 0.339
Stream size : 1.16 GiB (80%)
Writing library : XviD 1.2.1 (UTC 2008-12-04)
Audio
ID : 1
Format : AC-3
Format/Info : Audio Coding 3
Mode extension : CM (complete main)
Format settings, Endianness : Big
Codec ID : 2000
Duration : 1h 33mn
Bit rate mode : Constant
Bit rate : 448 Kbps
Channel(s) : 6 channels
Channel positions : Front: L C R, Side: L R, LFE
Sampling rate : 48.0 KHz
Compression mode : Lossy
Stream size : 298 MiB (20%)
Alignment : Split accross interleaves
Interleave, duration : 42 ms (1.00 video frame)
Interleave, preload duration : 500 ms

Скриншот c названием фильма

Скриншоты

,
,
,

Создавать темы 13-Окт-2015 20:08

[Профиль]  [ЛС] 
Показать сообщения:    
Ответить на тему

Текущее время: 18-Ноя 09:45

Часовой пояс: UTC + 5



Вы не можете начинать темы
Вы не можете отвечать на сообщения
Вы не можете редактировать свои сообщения
Вы не можете удалять свои сообщения
Вы не можете голосовать в опросах
Вы не можете прикреплять файлы к сообщениям
Вы не можете скачивать файлы