Баaхубали / Baahubali: The Beginning (С.С. Раджамули) [2015, Индия, Боевик, приключения, военный, история, HDRip] (DVO : DeadSno & den904) (Sub Rus)

Ответить на тему
 

Davron1402 ®

Стаж: 3 года 11 месяцев

Сообщений: 136

Симпатии: 122

Баaхубали / Baahubali: The Beginning- Страна: Индия
Жанр: Боевик, приключения, военный, история
Год выпуска: 2015
Продолжительность: 02:39:36
Перевод: Любительский (двухголосый закадровый) [DeadSno & den904]-Cубтитры: русские(на песни)
Режиссер: С.С. Раджамули-В ролях: Прабхас, Рана Даггубати, Анушка Шетти, Таманна Бхатия, Рамья Кришна, Нассер, Судип, Сатьярадж, Таникелла Бхарани-Описание: Воинственный и эпический герой по имени Бахубали был одним из сыновей Таксашильского царя Ришабхадевы. Много раз могучий Бахубали выходил на битву со своим родным братом и отвоевал все его земли. После очередной победы над ним Бахубали решил отказаться от трона и ушел в монахи. Что произошло дальше, воспето в многочисленных легендах и эпосах. Поговаривают, что в состоянии медитации Бахубали мог так долго не двигаться, что за несколько месяцев сквозь него прорастали растения, обвивая его тело и бороду, а на голове птицы доверчиво вили себе гнезда.-Качество видео: HDRip
Формат видео: AVI
Видео: xvid, 720 x 304 (2.35:1), 23.976 fps, 981 Kbps
Аудио: AC-3, 48.0 KHz, 6 channels, 320 Kbps- 

MediaInfo

Имя файла: Бахубали.2015.avi
Формат файла: .avi (AVI)
Размер файла: 1.46 GB
Длительность: 2h 39mn
Навигация по главам: Нет
Название: Бахубали.2015
Тип потока: Видео
Длительность: 02:39:36
Кодек: xvid
Кодек/ID: xvid
Размеры изображения: 720 x 304 (2.35:1)
Частота кадров: 23.976 fps
Размер потока: 1.09 GiB (75%)
Битрейт: 981 Kbps
Тип потока: Звук #1
Длительность: 02:39:36.192
Кодек: AC-3
Частота дискретизации: 48.0 KHz
Каналов: 6 channels
Битрейт: 320 Kbps
Размер потока: 365 MiB (24%)
Глубина: 16 bits
Метод сжатия: Lossy

Скриншоты






Создавать темы 13-Окт-2015 23:59

[Профиль]  [ЛС] 

Davron1402 ®

Стаж: 3 года 11 месяцев

Сообщений: 136

Симпатии: 122

Такой Индийские кино 1- раз смотрел, кино супер

Создавать темы 14-Окт-2015 15:54

[Профиль]  [ЛС] 

totsamiy

Стаж: 5 лет 5 месяцев

Сообщений: 145

Симпатии: 22

скачал из за рейтинга, оказалось полная фигня (то есть типичный индийский фильм)... откуда такой рейтинг????

Создавать темы 18-Окт-2015 14:41

[Профиль]  [ЛС] 

alewqa

Стаж: 5 лет 10 месяцев

Сообщений: 15

ребята пожжи добавьте если у кого есть фильм РА , Первый

Создавать темы 28-Окт-2015 06:59

[Профиль]  [ЛС] 

otash_81

Стаж: 5 лет 9 месяцев

Сообщений: 53

Симпатии: 2

продолжение 2016 год

Создавать темы 28-Окт-2015 19:27

[Профиль]  [ЛС] 

Mr.Rich

Стаж: 4 года 1 месяц

Сообщений: 8

Симпатии: 3

Спасибо

Создавать темы 04-Ноя-2015 23:26

[Профиль]  [ЛС] 

4niko

Стаж: 7 лет 1 месяц

Сообщений: 78

Симпатии: 11

955480скачал из за рейтинга, оказалось полная фигня (то есть типичный индийский фильм)... откуда такой рейтинг????
Это индийский IMDB ))

Создавать темы 04-Ноя-2015 23:55

[Профиль]  [ЛС] 

Davron1402 ®

Стаж: 3 года 11 месяцев

Сообщений: 136

Симпатии: 122

4niko, totsamiy, Если вы не любите индийские фильмы, я не виноват. Здесь правильно показывает рейтинг. Сами проверите

Создавать темы 05-Ноя-2015 23:19

[Профиль]  [ЛС] 

erkin91

Стаж: 4 года 2 месяца

Сообщений: 128

Симпатии: 81

Davron1402, спс фильмы супер СПС а еще есть 2 серии или нет

Создавать темы 07-Ноя-2015 20:48

[Профиль]  [ЛС] 

Davron1402 ®

Стаж: 3 года 11 месяцев

Сообщений: 136

Симпатии: 122

Davron1402, спс фильмы супер СПС а еще есть 2 серии или нет
еще не вышел

Создавать темы 07-Ноя-2015 23:38

[Профиль]  [ЛС] 
Показать сообщения:    
Ответить на тему

Текущее время: 11-Дек 14:20

Часовой пояс: UTC + 5



Вы не можете начинать темы
Вы не можете отвечать на сообщения
Вы не можете редактировать свои сообщения
Вы не можете удалять свои сообщения
Вы не можете голосовать в опросах
Вы не можете прикреплять файлы к сообщениям
Вы не можете скачивать файлы